<?xml version="1.0" standalone="no"?>
<!DOCTYPE svg PUBLIC "-//W3C//DTD SVG 1.1//EN" "http://www.w3.org/Graphics/SVG/1.1/DTD/svg11.dtd" >
<svg xmlns="http://www.w3.org/2000/svg">
<metadata>
This is a custom SVG font generated by IcoMoon.</metadata>
<defs>
<font id="Silkcons" horiz-adv-x="512" >
<font-face units-per-em="512" ascent="480" descent="-32" />
<missing-glyph horiz-adv-x="512" />
<glyph unicode="&#x21;" d="M 480.00-32.00l-160.00,0.00 c-17.696,0.00-32.00,14.304-32.00,32.00s 14.304,32.00, 32.00,32.00l 85.76,0.00 l-105.376,105.376
	c-12.512,12.512-12.512,32.736,0.00,45.248c 12.48,12.512, 32.736,12.512, 45.248,0.00L 448.00,80.256L 448.00,160.00 c0.00,17.696, 14.304,32.00, 32.00,32.00s 32.00-14.304, 32.00-32.00l0.00-160.00 
	C 512.00-17.696, 497.696-32.00, 480.00-32.00z M 480.00,256.00c-17.696,0.00-32.00,14.336-32.00,32.00L 448.00,367.776 l-102.368-102.40c-12.512-12.512-32.768-12.512-45.248,0.00
	c-12.512,12.512-12.512,32.736,0.00,45.248L 405.76,416.00L 320.00,416.00 C 302.304,416.00, 288.00,430.336, 288.00,448.00s 14.304,32.00, 32.00,32.00l 160.00,0.00 c 17.696,0.00, 32.00-14.336, 32.00-32.00l0.00-160.00 C 512.00,270.336, 497.696,256.00, 480.00,256.00z
	 M 192.00-31.008L 32.00-31.008 c-17.664,0.00-32.00,14.304-32.00,32.00l0.00,160.00 c0.00,17.696, 14.336,32.00, 32.00,32.00s 32.00-14.304, 32.00-32.00l0.00-79.744 l 102.40,102.368c 12.512,12.512, 32.768,12.512, 45.248,0.00
	c 12.512-12.512, 12.512-32.736,0.00-45.248l-105.344-105.376L 192.00,32.992 c 17.664,0.00, 32.00-14.304, 32.00-32.00S 209.664-31.008, 192.00-31.008z M 192.00,416.00L 106.272,416.00 l 105.344-105.376
	c 12.512-12.512, 12.512-32.736,0.00-45.248c-12.48-12.512-32.736-12.512-45.248,0.00L 64.00,367.776L 64.00,288.00 c0.00-17.664-14.336-32.00-32.00-32.00S0.00,270.336,0.00,288.00L0.00,448.00 
	c0.00,17.664, 14.336,32.00, 32.00,32.00l 160.00,0.00 c 17.664,0.00, 32.00-14.336, 32.00-32.00S 209.664,416.00, 192.00,416.00z" />
<glyph unicode="&#x22;" d="M 480.00,255.488c-17.696,0.00-32.00,14.336-32.00,32.00L 448.00,367.264 l-102.368-102.40
	c-12.512-12.512-32.768-12.512-45.248,0.00c-12.512,12.512-12.512,32.736,0.00,45.248l 105.376,105.376L 320.00,415.488 c-17.696,0.00-32.00,14.336-32.00,32.00s 14.304,32.00, 32.00,32.00l 160.00,0.00 
	c 17.696,0.00, 32.00-14.336, 32.00-32.00l0.00-160.00 C 512.00,269.824, 497.696,255.488, 480.00,255.488z M 224.00,0.512c0.00-17.696-14.336-32.00-32.00-32.00L 32.00-31.488 c-17.664,0.00-32.00,14.304-32.00,32.00l0.00,160.00 
	c0.00,17.696, 14.336,32.00, 32.00,32.00s 32.00-14.304, 32.00-32.00l0.00-79.744 l 102.40,102.368c 12.512,12.512, 32.768,12.512, 45.248,0.00c 12.512-12.512, 12.512-32.736,0.00-45.248l-105.344-105.376L 192.00,32.512 
	C 209.664,32.512, 224.00,18.176, 224.00,0.512z" />
<glyph unicode="&#x23;" d="M 512.00,288.00c0.00-17.664-14.304-32.00-32.00-32.00l-160.00,0.00 C 302.304,256.00, 288.00,270.336, 288.00,288.00L 288.00,448.00 c0.00,17.664, 14.304,32.00, 32.00,32.00
	s 32.00-14.336, 32.00-32.00l0.00-79.776 l 102.368,102.40c 12.512,12.512, 32.768,12.512, 45.248,0.00c 12.512-12.512, 12.512-32.736,0.00-45.248L 394.272,320.00L 480.00,320.00 C 497.696,320.00, 512.00,305.664, 512.00,288.00
	z M 192.00-31.008c-17.664,0.00-32.00,14.304-32.00,32.00l0.00,79.744 l-102.40-102.368c-12.512-12.512-32.768-12.512-45.248,0.00c-12.512,12.512-12.512,32.736,0.00,45.248
	l 105.376,105.376L 32.00,128.992 c-17.664,0.00-32.00,14.304-32.00,32.00s 14.336,32.00, 32.00,32.00l 160.00,0.00 c 17.664,0.00, 32.00-14.304, 32.00-32.00l0.00-160.00 C 224.00-16.672, 209.664-31.008, 192.00-31.008z M 192.00,256.00L 32.00,256.00 
	C 14.336,256.00,0.00,270.336,0.00,288.00s 14.336,32.00, 32.00,32.00l 85.728,0.00 L 12.352,425.376c-12.512,12.512-12.512,32.736,0.00,45.248c 12.48,12.512, 32.736,12.512, 45.248,0.00l 102.40-102.40L 160.00,448.00 
	c0.00,17.664, 14.336,32.00, 32.00,32.00s 32.00-14.336, 32.00-32.00l0.00-160.00 C 224.00,270.336, 209.664,256.00, 192.00,256.00z M 320.00,192.00l 160.00,0.00 c 17.696,0.00, 32.00-14.304, 32.00-32.00s-14.304-32.00-32.00-32.00l-85.728,0.00 l 105.344-105.376
	c 12.512-12.512, 12.512-32.736,0.00-45.248c-12.48-12.512-32.736-12.512-45.248,0.00L 352.00,79.744L 352.00,0.00 c0.00-17.696-14.304-32.00-32.00-32.00s-32.00,14.304-32.00,32.00l0.00,160.00 
	C 288.00,177.696, 302.304,192.00, 320.00,192.00z" />
<glyph unicode="&#x24;" d="M 394.272,319.488L 480.00,319.488 c 17.696,0.00, 32.00-14.336, 32.00-32.00s-14.304-32.00-32.00-32.00l-160.00,0.00 c-17.696,0.00-32.00,14.336-32.00,32.00
	l0.00,160.00 c0.00,17.664, 14.304,32.00, 32.00,32.00s 32.00-14.336, 32.00-32.00l0.00-79.776 l 102.368,102.40c 12.512,12.512, 32.768,12.512, 45.248,0.00c 12.512-12.512, 12.512-32.736,0.00-45.248
	L 394.272,319.488z M 192.00-31.488c-17.664,0.00-32.00,14.304-32.00,32.00l0.00,79.744 l-102.40-102.368c-12.512-12.512-32.768-12.512-45.248,0.00
	c-12.512,12.512-12.512,32.736,0.00,45.248l 105.376,105.376L 32.00,128.512 c-17.664,0.00-32.00,14.304-32.00,32.00s 14.336,32.00, 32.00,32.00l 160.00,0.00 c 17.664,0.00, 32.00-14.304, 32.00-32.00l0.00-160.00 
	C 224.00-17.184, 209.664-31.488, 192.00-31.488z" />
<glyph unicode="&#x25;" d="M 480.00,192.00l0.00-32.00 l-160.00,0.00 l0.00-160.00 L 288.00,0.00 l0.00-32.00 L 224.00-32.00 l0.00,32.00 L 192.00,0.00 l0.00,160.00 L 32.00,160.00 L 32.00,192.00 L0.00,192.00 L0.00,256.00 l 32.00,0.00 L 32.00,288.00 l 160.00,0.00 L 192.00,448.00 l 32.00,0.00 L 224.00,480.00 l 64.00,0.00 l0.00-32.00 l 32.00,0.00 l0.00-160.00 l 160.00,0.00 l0.00-32.00 l 32.00,0.00 l0.00-64.00 L 480.00,192.00 z" />
<glyph unicode="&#x26;" d="M 480.00,192.00l0.00-32.00 L 32.00,160.00 L 32.00,192.00 L0.00,192.00 L0.00,256.00 l 32.00,0.00 L 32.00,288.00 l 448.00,0.00 l0.00-32.00 l 32.00,0.00 l0.00-64.00 L 480.00,192.00 z" />
<glyph unicode="&#x27;" d="M 480.00,0.00l0.00-32.00 L 32.00-32.00 l0.00,32.00 L0.00,0.00 L0.00,384.00 l 32.00,0.00 L 32.00,416.00 l 64.00,0.00 l0.00-64.00 l 96.00,0.00 L 192.00,416.00 l 128.00,0.00 l0.00-64.00 l 96.00,0.00 L 416.00,416.00 l 64.00,0.00 l0.00-32.00 l 32.00,0.00 l0.00-384.00 L 480.00,0.00 z M 448.00,320.00L 64.00,320.00 l0.00-32.00 l 384.00,0.00 L 448.00,320.00 z M 448.00,256.00L 64.00,256.00 
	l0.00-32.00 l 384.00,0.00 L 448.00,256.00 z M 448.00,192.00L 64.00,192.00 l0.00-32.00 l 384.00,0.00 L 448.00,192.00 z M 448.00,128.00L 64.00,128.00 l0.00-32.00 l 384.00,0.00 L 448.00,128.00 z M 448.00,64.00L 64.00,64.00 l0.00-32.00 l 384.00,0.00 L 448.00,64.00 z M 352.00,480.00l 32.00,0.00 l0.00-96.00 l-32.00,0.00 L 352.00,480.00 z M 128.00,480.00l 32.00,0.00 l0.00-96.00 L 128.00,384.00 L 128.00,480.00 z" />
<glyph unicode="&#x28;" d="M 480.00,0.00l0.00-32.00 L 96.00-32.00 l0.00,32.00 L 64.00,0.00 l0.00,64.00 l 64.00,0.00 l0.00,96.00 L 64.00,160.00 L 64.00,192.00 l 64.00,0.00 L 128.00,288.00 L 64.00,288.00 L 64.00,320.00 l 64.00,0.00 L 128.00,416.00 L 64.00,416.00 L 64.00,448.00 l 32.00,0.00 L 96.00,480.00 l 384.00,0.00 l0.00-32.00 l 32.00,0.00 l0.00-448.00 L 480.00,0.00 z M 416.00,416.00L 192.00,416.00 l0.00-32.00 l 224.00,0.00 
	L 416.00,416.00 z M 416.00,352.00L 192.00,352.00 l0.00-32.00 l 224.00,0.00 L 416.00,352.00 z M 416.00,288.00L 192.00,288.00 l0.00-32.00 l 224.00,0.00 L 416.00,288.00 z M 416.00,224.00L 192.00,224.00 l0.00-32.00 l 224.00,0.00 L 416.00,224.00 z M 416.00,160.00L 192.00,160.00 l0.00-32.00 l 224.00,0.00 L 416.00,160.00 z M 416.00,96.00L 192.00,96.00 l0.00-32.00 l 224.00,0.00 L 416.00,96.00 z M 96.00,352.00L0.00,352.00 L0.00,384.00 l 96.00,0.00 L 96.00,352.00 z M 96.00,224.00L0.00,224.00 L0.00,256.00 l 96.00,0.00 L 96.00,224.00 z M 96.00,96.00L0.00,96.00 l0.00,32.00 l 96.00,0.00 L 96.00,96.00 z
	" />
<glyph unicode="&#x29;" d="M 480.00,128.00l0.00-32.00 L 160.00,96.00 l0.00,32.00 L 128.00,128.00 L 128.00,448.00 l 32.00,0.00 L 160.00,480.00 l 320.00,0.00 l0.00-32.00 l 32.00,0.00 l0.00-320.00 L 480.00,128.00 z M 448.00,416.00L 192.00,416.00 l0.00-256.00 l 256.00,0.00 L 448.00,416.00 z M 320.00-32.00L 64.00-32.00 L 32.00-32.00 l0.00,32.00 L0.00,0.00 l0.00,32.00 L0.00,320.00 l 64.00,0.00 
	l0.00-288.00 l 256.00,0.00 L 320.00-32.00 z" />
<glyph unicode="&#x2a;" d="M 320.00,128.00l0.00,32.00 l 32.00,0.00 L 352.00,448.00 l-32.00,0.00 L 320.00,480.00 L 32.00,480.00 l0.00-32.00 L0.00,448.00 l0.00-288.00 l 32.00,0.00 l0.00-32.00 L 320.00,128.00 z M 64.00,416.00l 224.00,0.00 l0.00-224.00 L 64.00,192.00 L 64.00,416.00 zM 480.00,288.00L 480.00,320.00L 384.00,320.00L 384.00,256.00L 448.00,256.00L 448.00,32.00L 224.00,32.00L 224.00,96.00L 160.00,96.00L 160.00,0.00L 192.00,0.00L 192.00-32.00L 480.00-32.00L 480.00,0.00L 512.00,0.00L 512.00,288.00 	z" />
<glyph unicode="&#x2b;" d="M 480.00,192.00l0.00-32.00 l-32.00,0.00 l0.00-32.00 l-32.00,0.00 l0.00-32.00 l-32.00,0.00 l0.00-32.00 l-32.00,0.00 l0.00-32.00 l-32.00,0.00 l0.00-32.00 L 288.00,0.00 l0.00-32.00 L 224.00-32.00 l0.00,32.00 L 192.00,0.00 l0.00,32.00 L 160.00,32.00 l0.00,32.00 L 128.00,64.00 l0.00,32.00 L 96.00,96.00 l0.00,32.00 L 64.00,128.00 l0.00,32.00 L 32.00,160.00 L 32.00,192.00 L0.00,192.00 L0.00,224.00 
	l 160.00,0.00 L 160.00,448.00 l 32.00,0.00 L 192.00,480.00 l 128.00,0.00 l0.00-32.00 l 32.00,0.00 l0.00-224.00 l 160.00,0.00 l0.00-32.00 L 480.00,192.00 z" />
<glyph unicode="&#x2c;" d="M 352.00,224.00l0.00-224.00 l-32.00,0.00 l0.00-32.00 L 192.00-32.00 l0.00,32.00 L 160.00,0.00 L 160.00,224.00 L0.00,224.00 L0.00,256.00 l 32.00,0.00 L 32.00,288.00 l 32.00,0.00 L 64.00,320.00 l 32.00,0.00 L 96.00,352.00 l 32.00,0.00 L 128.00,384.00 l 32.00,0.00 L 160.00,416.00 l 32.00,0.00 L 192.00,448.00 l 32.00,0.00 L 224.00,480.00 l 64.00,0.00 l0.00-32.00 l 32.00,0.00 l0.00-32.00 l 32.00,0.00 l0.00-32.00 l 32.00,0.00 l0.00-32.00 l 32.00,0.00 l0.00-32.00 
	l 32.00,0.00 l0.00-32.00 l 32.00,0.00 l0.00-32.00 l 32.00,0.00 l0.00-32.00 L 352.00,224.00 z" />
<glyph unicode="&#x2d;" d="M 480.00,160.00l0.00-32.00 L 256.00,128.00 l0.00-160.00 L 224.00-32.00 l0.00,32.00 L 192.00,0.00 l0.00,32.00 L 160.00,32.00 l0.00,32.00 L 128.00,64.00 l0.00,32.00 L 96.00,96.00 l0.00,32.00 L 64.00,128.00 l0.00,32.00 L 32.00,160.00 L 32.00,192.00 L0.00,192.00 L0.00,256.00 l 32.00,0.00 L 32.00,288.00 l 32.00,0.00 L 64.00,320.00 l 32.00,0.00 L 96.00,352.00 l 32.00,0.00 L 128.00,384.00 l 32.00,0.00 L 160.00,416.00 l 32.00,0.00 L 192.00,448.00 
	l 32.00,0.00 L 224.00,480.00 l 32.00,0.00 l0.00-160.00 l 224.00,0.00 l0.00-32.00 l 32.00,0.00 l0.00-128.00 L 480.00,160.00 z" />
<glyph unicode="&#x2e;" d="M 480.00,192.00l0.00-32.00 l-32.00,0.00 l0.00-32.00 l-32.00,0.00 l0.00-32.00 l-32.00,0.00 l0.00-32.00 l-32.00,0.00 l0.00-32.00 l-32.00,0.00 l0.00-32.00 L 288.00,0.00 l0.00-32.00 L 256.00-32.00 l0.00,160.00 L 32.00,128.00 l0.00,32.00 L0.00,160.00 L0.00,288.00 l 32.00,0.00 L 32.00,320.00 l 224.00,0.00 L 256.00,480.00 l 32.00,0.00 l0.00-32.00 l 32.00,0.00 l0.00-32.00 l 32.00,0.00 l0.00-32.00 l 32.00,0.00 l0.00-32.00 
	l 32.00,0.00 l0.00-32.00 l 32.00,0.00 l0.00-32.00 l 32.00,0.00 l0.00-32.00 l 32.00,0.00 l0.00-64.00 L 480.00,192.00 z" />
<glyph unicode="&#x2f;" d="M 480.00,192.00l0.00-32.00 l-32.00,0.00 l0.00-32.00 l-32.00,0.00 l0.00-32.00 l-32.00,0.00 l0.00-32.00 l-32.00,0.00 l0.00-32.00 l-32.00,0.00 l0.00-32.00 L 288.00,0.00 l0.00-32.00 L 224.00-32.00 l0.00,32.00 L 192.00,0.00 l0.00,32.00 L 160.00,32.00 l0.00,32.00 L 128.00,64.00 l0.00,32.00 L 96.00,96.00 l0.00,32.00 L 64.00,128.00 l0.00,32.00 L 32.00,160.00 L 32.00,192.00 L0.00,192.00 L0.00,224.00 
	l 160.00,0.00 L 160.00,448.00 l 32.00,0.00 l0.00-256.00 L 96.00,192.00 l0.00-32.00 l 32.00,0.00 l0.00-32.00 l 32.00,0.00 l0.00-32.00 l 32.00,0.00 l0.00-32.00 l 32.00,0.00 l0.00-32.00 l 64.00,0.00 l0.00,32.00 l 32.00,0.00 l0.00,32.00 l 32.00,0.00 l0.00,32.00 l 32.00,0.00 l0.00,32.00 l 32.00,0.00 L 416.00,192.00 l-96.00,0.00 L 320.00,448.00 l 32.00,0.00 l0.00-224.00 l 160.00,0.00 l0.00-32.00 L 480.00,192.00 z M 192.00,480.00l 128.00,0.00 l0.00-32.00 L 192.00,448.00 L 192.00,480.00 z" />
<glyph unicode="&#x30;" d="M 352.00,224.00l0.00-224.00 l-32.00,0.00 L 320.00,256.00 l 96.00,0.00 L 416.00,288.00 l-32.00,0.00 L 384.00,320.00 l-32.00,0.00 L 352.00,352.00 l-32.00,0.00 L 320.00,384.00 L 288.00,384.00 L 288.00,416.00 L 224.00,416.00 l0.00-32.00 L 192.00,384.00 l0.00-32.00 L 160.00,352.00 l0.00-32.00 L 128.00,320.00 l0.00-32.00 L 96.00,288.00 l0.00-32.00 l 96.00,0.00 l0.00-256.00 L 160.00,0.00 L 160.00,224.00 L0.00,224.00 L0.00,256.00 l 32.00,0.00 L 32.00,288.00 l 32.00,0.00 
	L 64.00,320.00 l 32.00,0.00 L 96.00,352.00 l 32.00,0.00 L 128.00,384.00 l 32.00,0.00 L 160.00,416.00 l 32.00,0.00 L 192.00,448.00 l 32.00,0.00 L 224.00,480.00 l 64.00,0.00 l0.00-32.00 l 32.00,0.00 l0.00-32.00 l 32.00,0.00 l0.00-32.00 l 32.00,0.00 l0.00-32.00 l 32.00,0.00 l0.00-32.00 l 32.00,0.00 l0.00-32.00 l 32.00,0.00 l0.00-32.00 l 32.00,0.00 l0.00-32.00 L 352.00,224.00 z M 320.00-32.00L 192.00-32.00 l0.00,32.00 l 128.00,0.00 L 320.00-32.00 z" />
<glyph unicode="&#x31;" d="M 480.00,160.00L 480.00,288.00 l 32.00,0.00 l0.00-128.00 L 480.00,160.00 z M 224.00,384.00L 192.00,384.00 l0.00-32.00 L 160.00,352.00 l0.00-32.00 L 128.00,320.00 l0.00-32.00 L 96.00,288.00 l0.00-32.00 L 64.00,256.00 l0.00-64.00 l 32.00,0.00 l0.00-32.00 l 32.00,0.00 l0.00-32.00 l 32.00,0.00 l0.00-32.00 l 32.00,0.00 l0.00-32.00 l 32.00,0.00 l0.00,96.00 l 256.00,0.00 l0.00-32.00 L 256.00,128.00 l0.00-160.00 L 224.00-32.00 
	l0.00,32.00 L 192.00,0.00 l0.00,32.00 L 160.00,32.00 l0.00,32.00 L 128.00,64.00 l0.00,32.00 L 96.00,96.00 l0.00,32.00 L 64.00,128.00 l0.00,32.00 L 32.00,160.00 L 32.00,192.00 L0.00,192.00 L0.00,256.00 l 32.00,0.00 L 32.00,288.00 l 32.00,0.00 L 64.00,320.00 l 32.00,0.00 L 96.00,352.00 l 32.00,0.00 L 128.00,384.00 l 32.00,0.00 L 160.00,416.00 l 32.00,0.00 L 192.00,448.00 l 32.00,0.00 L 224.00,480.00 l 32.00,0.00 l0.00-160.00 l 224.00,0.00 l0.00-32.00 L 224.00,288.00 L 224.00,384.00 z" />
<glyph unicode="&#x32;" d="M 480.00,192.00l0.00-32.00 l-32.00,0.00 l0.00-32.00 l-32.00,0.00 l0.00-32.00 l-32.00,0.00 l0.00-32.00 l-32.00,0.00 l0.00-32.00 l-32.00,0.00 l0.00-32.00 L 288.00,0.00 l0.00-32.00 L 256.00-32.00 l0.00,160.00 L 32.00,128.00 l0.00,32.00 l 256.00,0.00 l0.00-96.00 l 32.00,0.00 l0.00,32.00 l 32.00,0.00 l0.00,32.00 l 32.00,0.00 l0.00,32.00 l 32.00,0.00 L 416.00,192.00 l 32.00,0.00 L 448.00,256.00 
	l-32.00,0.00 L 416.00,288.00 l-32.00,0.00 L 384.00,320.00 l-32.00,0.00 L 352.00,352.00 l-32.00,0.00 L 320.00,384.00 L 288.00,384.00 l0.00-96.00 L 32.00,288.00 L 32.00,320.00 l 224.00,0.00 L 256.00,480.00 l 32.00,0.00 l0.00-32.00 l 32.00,0.00 l0.00-32.00 l 32.00,0.00 l0.00-32.00 l 32.00,0.00 l0.00-32.00 l 32.00,0.00 l0.00-32.00 l 32.00,0.00 l0.00-32.00 l 32.00,0.00 l0.00-32.00 l 32.00,0.00 l0.00-64.00 L 480.00,192.00 z M0.00,160.00L0.00,288.00 l 32.00,0.00 l0.00-128.00 L0.00,160.00 z" />
<glyph unicode="&#x33;" d="M 256.00-32.00c-141.376,0.00-256.00,114.624-256.00,256.00c0.00,141.376, 114.624,256.00, 256.00,256.00s 256.00-114.624, 256.00-256.00
	C 512.00,82.624, 397.376-32.00, 256.00-32.00z M 288.00,413.088L 288.00,320.00 L 224.00,320.00 L 224.00,413.088 C 143.808,399.552, 80.768,336.288, 67.232,256.00L 160.00,256.00 l0.00-64.00 L 67.232,192.00 C 80.768,111.68, 143.808,48.448, 224.00,34.912L 224.00,128.00 l 64.00,0.00 
	l0.00-93.088 c 80.224,13.536, 143.232,76.768, 156.768,157.088L 352.00,192.00 L 352.00,256.00 l 92.768,0.00 C 431.232,336.288, 368.224,399.552, 288.00,413.088z" />
<glyph unicode="&#x34;" d="M 288.00,352.00L 224.00,352.00 l0.00-160.00 l 160.00,0.00 L 384.00,256.00 L 288.00,256.00 L 288.00,352.00 z M 256.00,480.00C 114.624,480.00,0.00,365.376,0.00,224.00c0.00-141.376, 114.624-256.00, 256.00-256.00
			s 256.00,114.624, 256.00,256.00C 512.00,365.376, 397.376,480.00, 256.00,480.00z M 256.00,32.00c-106.016,0.00-192.00,85.984-192.00,192.00s 85.984,192.00, 192.00,192.00s 192.00-85.984, 192.00-192.00S 362.016,32.00, 256.00,32.00z" />
<glyph unicode="&#x35;" d="M 380.00,32.00c-3.648,0.00-7.136,0.64-10.72,0.928C 366.176,32.64, 363.20,32.00, 360.00,32.00
	L 320.00,32.00 l0.00,128.00 l 64.00,0.00 L 384.00,192.00 l-32.00,0.00 L 352.00,224.00 l-32.00,0.00 L 320.00,256.00 L 288.00,256.00 L 288.00,288.00 L 224.00,288.00 l0.00-32.00 L 192.00,256.00 l0.00-32.00 L 160.00,224.00 l0.00-32.00 L 128.00,192.00 l0.00-32.00 l 64.00,0.00 l0.00-128.00 L 96.00,32.00 c-53.024,0.00-96.00,43.008-96.00,96.00c0.00,45.312, 31.488,83.04, 73.696,93.12C 67.68,236.992, 64.00,254.016, 64.00,272.00
	C 64.00,351.52, 128.48,416.00, 208.00,416.00c 72.608,0.00, 132.032-53.888, 141.952-123.744c 9.696,2.272, 19.68,3.744, 30.048,3.744C 452.896,296.00, 512.00,236.896, 512.00,164.00
	S 452.896,32.00, 380.00,32.00z" />
<glyph unicode="&#x36;" d="M 380.00,296.00c-10.368,0.00-20.384-1.472-30.048-3.744C 340.032,362.112, 280.608,416.00, 208.00,416.00
	C 128.48,416.00, 64.00,351.52, 64.00,272.00c0.00-17.984, 3.68-35.008, 9.696-50.88C 31.488,211.04,0.00,173.312,0.00,128.00c0.00-52.992, 42.976-96.00, 96.00-96.00l 264.00,0.00 l 20.00,0.00 
	C 452.896,32.00, 512.00,91.104, 512.00,164.00S 452.896,296.00, 380.00,296.00z" />
<glyph unicode="&#x37;" d="M 416.00,0.00l0.00-32.00 L 96.00-32.00 l0.00,32.00 L 64.00,0.00 L 64.00,448.00 l 32.00,0.00 l0.00-352.00 l 320.00,0.00 L 416.00,448.00 l 32.00,0.00 l0.00-448.00 L 416.00,0.00 z M 288.00,64.00L 224.00,64.00 l0.00-64.00 l 64.00,0.00 L 288.00,64.00 z M 96.00,480.00l 320.00,0.00 l0.00-32.00 L 96.00,448.00 L 96.00,480.00 z" />
<glyph unicode="&#x38;" d="M 128.00,320.00L 384.00,320.00L 384.00,128.00L 128.00,128.00zM 96.00,96.00L 128.00,96.00L 128.00,64.00L 96.00,64.00zM 96.00,384.00L 128.00,384.00L 128.00,352.00L 96.00,352.00zM 64.00,0.00L 64.00,32.00L 32.00,32.00L 32.00,64.00L0.00,64.00L0.00-32.00L 96.00-32.00L 96.00,0.00 	zM0.00,480.00L0.00,384.00L 32.00,384.00L 32.00,416.00L 64.00,416.00L 64.00,448.00L 96.00,448.00L 96.00,480.00 	zM 64.00,416.00L 96.00,416.00L 96.00,384.00L 64.00,384.00zM 64.00,64.00L 96.00,64.00L 96.00,32.00L 64.00,32.00zM 416.00,416.00L 448.00,416.00L 448.00,384.00L 416.00,384.00zM 384.00,384.00L 416.00,384.00L 416.00,352.00L 384.00,352.00zM 416.00,480.00L 416.00,448.00L 448.00,448.00L 448.00,416.00L 480.00,416.00L 480.00,384.00L 512.00,384.00L 512.00,480.00 	zM 384.00,96.00L 416.00,96.00L 416.00,64.00L 384.00,64.00zM 416.00,64.00L 448.00,64.00L 448.00,32.00L 416.00,32.00zM 480.00,64.00L 480.00,32.00L 448.00,32.00L 448.00,0.00L 416.00,0.00L 416.00-32.00L 512.00-32.00L 512.00,64.00 	z" />
<glyph unicode="&#x39;" d="M 32.00,32.00L 64.00,32.00L 64.00,0.00L 32.00,0.00zM 32.00,96.00L 32.00,64.00L 64.00,64.00L 64.00,32.00L 96.00,32.00L 96.00,0.00L 128.00,0.00L 128.00,96.00 	zM0.00,0.00L 32.00,0.00L 32.00-32.00L0.00-32.00zM 96.00,448.00L 96.00,416.00L 64.00,416.00L 64.00,384.00L 32.00,384.00L 32.00,352.00L 128.00,352.00L 128.00,448.00 	zM0.00,480.00L 32.00,480.00L 32.00,448.00L0.00,448.00zM 32.00,448.00L 64.00,448.00L 64.00,416.00L 32.00,416.00zM 128.00,320.00L 384.00,320.00L 384.00,128.00L 128.00,128.00zM 448.00,384.00L 448.00,416.00L 416.00,416.00L 416.00,448.00L 384.00,448.00L 384.00,352.00L 480.00,352.00L 480.00,384.00 	zM 448.00,448.00L 480.00,448.00L 480.00,416.00L 448.00,416.00zM 480.00,480.00L 512.00,480.00L 512.00,448.00L 480.00,448.00zM 480.00,0.00L 512.00,0.00L 512.00-32.00L 480.00-32.00zM 384.00,96.00L 384.00,0.00L 416.00,0.00L 416.00,32.00L 448.00,32.00L 448.00,64.00L 480.00,64.00L 480.00,96.00 	zM 448.00,32.00L 480.00,32.00L 480.00,0.00L 448.00,0.00z" />
<glyph unicode="&#x3a;" d="M 128.00,352.00L 128.00,480.00 L 96.00,480.00 L0.00,480.00 l0.00-64.00 l 96.00,0.00 l0.00-352.00 l 64.00,0.00 l0.00-96.00 l 96.00,0.00 l0.00,96.00 l 96.00,0.00 l0.00-96.00 l 96.00,0.00 l0.00,96.00 l 64.00,0.00 L 512.00,352.00 L 128.00,352.00 z M 160.00,96.00L 128.00,96.00 l0.00,32.00 l 32.00,0.00 L 160.00,96.00 z M 160.00,160.00L 128.00,160.00 L 128.00,192.00 l 32.00,0.00 L 160.00,160.00 
	z M 160.00,224.00L 128.00,224.00 L 128.00,256.00 l 32.00,0.00 L 160.00,224.00 z M 160.00,288.00L 128.00,288.00 L 128.00,320.00 l 32.00,0.00 L 160.00,288.00 z M 224.00,0.00L 192.00,0.00 l0.00,32.00 l 32.00,0.00 L 224.00,0.00 z M 224.00,96.00L 192.00,96.00 l0.00,32.00 l 32.00,0.00 L 224.00,96.00 z M 224.00,160.00L 192.00,160.00 L 192.00,192.00 l 32.00,0.00 L 224.00,160.00 z M 224.00,224.00L 192.00,224.00 L 192.00,256.00 l 32.00,0.00 L 224.00,224.00 z M 224.00,288.00L 192.00,288.00 L 192.00,320.00 l 32.00,0.00 L 224.00,288.00 z M 288.00,96.00L 256.00,96.00 l0.00,32.00 l 32.00,0.00 L 288.00,96.00 z
	 M 288.00,160.00L 256.00,160.00 L 256.00,192.00 l 32.00,0.00 L 288.00,160.00 z M 288.00,224.00L 256.00,224.00 L 256.00,256.00 l 32.00,0.00 L 288.00,224.00 z M 288.00,288.00L 256.00,288.00 L 256.00,320.00 l 32.00,0.00 L 288.00,288.00 z M 352.00,96.00l-32.00,0.00 l0.00,32.00 l 32.00,0.00 L 352.00,96.00 z M 352.00,160.00l-32.00,0.00 L 320.00,192.00 l 32.00,0.00 L 352.00,160.00 z M 352.00,224.00l-32.00,0.00 L 320.00,256.00 l 32.00,0.00 L 352.00,224.00 z M 352.00,288.00l-32.00,0.00 L 320.00,320.00 l 32.00,0.00 L 352.00,288.00 z M 416.00,0.00l-32.00,0.00 l0.00,32.00 
	l 32.00,0.00 L 416.00,0.00 z M 416.00,96.00l-32.00,0.00 l0.00,32.00 l 32.00,0.00 L 416.00,96.00 z M 416.00,160.00l-32.00,0.00 L 384.00,192.00 l 32.00,0.00 L 416.00,160.00 z M 416.00,224.00l-32.00,0.00 L 384.00,256.00 l 32.00,0.00 L 416.00,224.00 z M 416.00,288.00l-32.00,0.00 L 384.00,320.00 l 32.00,0.00 L 416.00,288.00 z M 480.00,96.00l-32.00,0.00 l0.00,32.00 l 32.00,0.00 L 480.00,96.00 z M 480.00,160.00l-32.00,0.00 L 448.00,192.00 l 32.00,0.00 L 480.00,160.00 z M 480.00,224.00l-32.00,0.00 L 448.00,256.00 l 32.00,0.00 L 480.00,224.00 
	z M 480.00,288.00l-32.00,0.00 L 448.00,320.00 l 32.00,0.00 L 480.00,288.00 z" />
<glyph unicode="&#x3b;" d="M 497.28,455.36l-27.424,18.88c-15.104,10.432-35.52,6.272-45.664-9.28l-232.096-359.04
	L 74.08,229.024c-12.00,12.512-31.392,12.512-43.392,0.00L 8.992,206.40c-12.00-12.512-12.00-32.768,0.00-45.28L 194.24-32.00l 27.584,0.00 l 284.64,440.256
	C 516.544,423.84, 512.48,444.928, 497.28,455.36z" />
<glyph unicode="&#x3c;" d="M 324.032,224.064l 178.784-178.848c 12.384-12.384, 12.256-32.544-0.288-45.056l-22.688-22.688
	c-12.544-12.544-32.704-12.672-45.056-0.288L 256.00,156.00l-178.752-178.816c-12.384-12.384-32.544-12.256-45.088,0.288l-22.656,22.688
	c-12.544,12.544-12.672,32.672-0.288,45.056l 178.752,178.848L 9.344,402.72C-3.04,415.104-2.912,435.296, 9.60,447.808l 22.656,22.688
	C 44.80,483.04, 64.992,483.168, 77.344,470.816L 256.00,292.096l 178.656,178.72c 12.352,12.352, 32.544,12.224, 45.056-0.32L 502.40,447.808
	c 12.544-12.544, 12.672-32.704, 0.288-45.088L 324.032,224.064z" />
<glyph unicode="&#x3d;" d="M 224.00,96.032L 352.00,224.00L 224.00,351.968L 224.00,288.00L0.00,288.00L0.00,160.00L 224.00,160.00 	zM 128.00,480.00L 128.00,352.00L 160.00,352.00L 160.00,448.00L 416.00,448.00L 416.00,0.00L 160.00,0.00L 160.00,96.00L 128.00,96.00L 128.00-32.00L 512.00-32.00L 512.00,480.00 	z" />
<glyph unicode="&#x3e;" d="M 128.00,160.00L 352.00,160.00L 352.00,288.00L 128.00,288.00L 128.00,351.968L0.00,224.00L 128.00,96.032 	zM 128.00,480.00L 128.00,352.00L 160.00,352.00L 160.00,448.00L 416.00,448.00L 416.00,0.00L 160.00,0.00L 160.00,96.00L 128.00,96.00L 128.00-32.00L 512.00-32.00L 512.00,480.00 	z" />
<glyph unicode="&#x3f;" d="M 383.968,256.00L 128.032,256.00L 256.00,128.00 	zM 192.00,480.00L 320.00,480.00L 320.00,256.00L 192.00,256.00zM 384.00,352.00L 384.00,320.00L 480.00,320.00L 480.00,64.00L 32.00,64.00L 32.00,320.00L 128.00,320.00L 128.00,352.00L0.00,352.00L0.00-32.00L 512.00-32.00L 512.00,352.00 	z" />
<glyph unicode="&#x40;" d="M 256.00,480.00L 128.032,352.032L 383.968,352.032 	zM 384.00,352.00L 384.00,320.00L 480.00,320.00L 480.00,64.00L 32.00,64.00L 32.00,320.00L 128.00,320.00L 128.00,352.00L0.00,352.00L0.00-32.00L 512.00-32.00L 512.00,352.00 	zM 192.00,352.00L 320.00,352.00L 320.00,128.00L 192.00,128.00z" />
<glyph unicode="&#x41;" d="M 257.824-32.064c0.00,0.00-405.824,366.048-199.008,485.728
	c 119.328,69.056, 196.96-19.328, 196.96-19.328s 77.664,88.352, 196.96,19.328C 659.552,333.984, 257.824-32.064, 257.824-32.064" />
<glyph unicode="&#x42;" d="M 257.824-32.064c0.00,0.00-8.448,7.616-21.952,20.736L 352.064,192.00l-96.00,128.00l 27.328,136.544
	c 32.544,20.576, 92.16,41.792, 169.344-2.88C 659.552,333.984, 257.824-32.064, 257.824-32.064z M 192.064,320.00l 96.00-128.00l-56.80-198.88
	C 144.544,77.824-115.232,352.96, 58.816,453.664c 71.36,41.312, 127.616,26.24, 161.472,7.52L 192.064,320.00z" />
<glyph unicode="&#x43;" d="M 403.52,332.064C 314.112,383.84, 255.872,317.60, 255.872,317.60S 221.344,356.576, 164.736,351.136l 228.192-228.192
		C 446.24,201.152, 478.944,288.416, 403.52,332.064zM 257.408-32.032c0.00,0.00, 35.584,32.672, 75.968,78.784L 77.60,302.528C 7.776,193.696, 257.408-32.032, 257.408-32.032zM 448.00,64.00L 448.00,22.624L 96.00,374.624L 96.00,448.00L 64.00,448.00L 64.00,384.00L0.00,384.00L0.00,352.00L 73.376,352.00L 425.376,0.00L 384.00,0.00L 384.00-32.00L 480.00-32.00L 480.00,64.00 	z" />
<glyph unicode="&#x44;" d="M 512.00,64.00l0.00-96.00 l-96.00,0.00 l0.00,32.00 L 96.00,0.00 l0.00-32.00 L0.00-32.00 l0.00,96.00 l 32.00,0.00 L 32.00,384.00 L0.00,384.00 L0.00,480.00 l 96.00,0.00 l0.00-32.00 l 320.00,0.00 L 416.00,480.00 l 96.00,0.00 l0.00-96.00 l-32.00,0.00 l0.00-320.00 L 512.00,64.00 z M 448.00,0.00l 32.00,0.00 l0.00,32.00 l-32.00,0.00 L 448.00,0.00 z
	 M 32.00,0.00l 32.00,0.00 l0.00,32.00 L 32.00,32.00 L 32.00,0.00 z M 64.00,448.00L 32.00,448.00 l0.00-32.00 l 32.00,0.00 L 64.00,448.00 z M 480.00,448.00l-32.00,0.00 l0.00-32.00 l 32.00,0.00 L 480.00,448.00 z M 448.00,384.00l-32.00,0.00 L 416.00,416.00 L 96.00,416.00 l0.00-32.00 L 64.00,384.00 l0.00-320.00 l 32.00,0.00 l0.00-32.00 l 320.00,0.00 l0.00,32.00 l 32.00,0.00 L 448.00,384.00 z" />
<glyph unicode="&#x45;" d="M 512.00,64.00l0.00-96.00 l-96.00,0.00 l0.00,32.00 l-96.00,0.00 l0.00-32.00 L 192.00-32.00 l0.00,32.00 L 96.00,0.00 l0.00-32.00 L0.00-32.00 l0.00,96.00 l 32.00,0.00 l0.00,96.00 L0.00,160.00 L0.00,288.00 l 32.00,0.00 L 32.00,384.00 L0.00,384.00 L0.00,480.00 l 96.00,0.00 l0.00-32.00 l 96.00,0.00 L 192.00,480.00 l 128.00,0.00 l0.00-32.00 l 96.00,0.00 L 416.00,480.00 l 96.00,0.00 l0.00-96.00 l-32.00,0.00 
	l0.00-96.00 l 32.00,0.00 l0.00-128.00 l-32.00,0.00 l0.00-96.00 L 512.00,64.00 z M 224.00,0.00l 64.00,0.00 l0.00,64.00 L 224.00,64.00 L 224.00,0.00 z M 32.00,0.00l 32.00,0.00 l0.00,32.00 L 32.00,32.00 L 32.00,0.00 z M 32.00,192.00l 64.00,0.00 L 96.00,256.00 L 32.00,256.00 L 32.00,192.00 z M 64.00,448.00L 32.00,448.00 l0.00-32.00 l 32.00,0.00 L 64.00,448.00 z M 288.00,448.00L 224.00,448.00 l0.00-64.00 l 64.00,0.00 L 288.00,448.00 z M 416.00,416.00l-96.00,0.00 l0.00-64.00 L 192.00,352.00 L 192.00,416.00 L 96.00,416.00 l0.00-32.00 L 64.00,384.00 l0.00-96.00 l 64.00,0.00 l0.00-128.00 L 64.00,160.00 l0.00-96.00 l 32.00,0.00 l0.00-32.00 
	l 96.00,0.00 l0.00,64.00 l 128.00,0.00 l0.00-64.00 l 96.00,0.00 l0.00,32.00 l 32.00,0.00 l0.00,96.00 l-64.00,0.00 L 384.00,288.00 l 64.00,0.00 L 448.00,384.00 l-32.00,0.00 L 416.00,416.00 z M 480.00,448.00l-32.00,0.00 l0.00-32.00 l 32.00,0.00 L 480.00,448.00 z M 480.00,256.00l-64.00,0.00 l0.00-64.00 l 64.00,0.00 L 480.00,256.00 z M 448.00,32.00l0.00-32.00 l 32.00,0.00 l0.00,32.00 L 448.00,32.00 z" />
<glyph unicode="&#x46;" d="M 256.00,467.424l 84.384-152.992l 171.584-32.96l-119.456-127.52l 21.696-173.376L 256.00,54.752
	l-158.176-74.176l 21.696,173.376L 0.032,281.472l 171.584,32.96L 256.00,467.424" />
<glyph unicode="&#x47;" d="M 392.512,153.952l 21.696-173.376L 256.00,54.752l-158.176-74.176l 21.696,173.376L 0.032,281.472
	l 171.584,32.96L 256.00,467.424l 84.384-152.992l 171.584-32.96L 392.512,153.952z M 313.984,286.144L 256.00,391.328l0.00-283.712 l 108.736-51.008l-14.912,119.20l 82.112,87.68
	L 313.984,286.144z" />
<glyph unicode="&#x48;" d="M 392.512,153.952l 21.696-173.376L 256.00,54.752l-158.176-74.176l 21.696,173.376L 0.032,281.472
	l 171.584,32.96L 256.00,467.424l 84.384-152.992l 171.584-32.96L 392.512,153.952z M 313.984,286.144L 256.00,391.328L 198.016,286.144L 80.032,263.488l 82.112-87.68L 147.264,56.64
	L 256.00,107.616l 108.736-51.008l-14.912,119.20l 82.112,87.68L 313.984,286.144z" />
<glyph unicode="&#x49;" d="M 288.00,480.00L0.00,128.00L 224.00,128.00L 512.00,480.00 	zM 256.00-32.00L 512.00,288.00L 512.00,416.00L 256.00,96.00 	zM0.00,96.00L 224.00,96.00L 224.00-32.00L0.00-32.00z" />
<glyph unicode="&#x4a;" d="M 14.176,397.952L 82.048,465.824L 149.92,397.952L 82.048,330.08zM 489.376,58.528L 466.752,81.152L 398.88,13.248L 421.504-9.376L 512.00-32.00 	zM 104.704,307.392L 172.544,375.296L 444.128,103.872L 376.288,35.968z" />
<glyph unicode="&#x4b;" d="M0.00-32.00L0.00,416.00 l 65.888,0.00 C 64.768,409.60, 64.00,402.976, 64.00,396.00C 64.00,354.016, 85.472,320.00, 112.00,320.00
	S 160.00,354.016, 160.00,396.00C 160.00,402.976, 159.232,409.60, 158.112,416.00l 195.776,0.00 C 352.768,409.60, 352.00,402.976, 352.00,396.00C 352.00,354.016, 373.504,320.00, 400.00,320.00S 448.00,354.016, 448.00,396.00
	C 448.00,402.976, 447.232,409.60, 446.112,416.00L 512.00,416.00 l0.00-448.00 L0.00-32.00 z M 448.00,272.352C 434.592,262.24, 418.08,256.00, 400.00,256.00C 355.808,256.00, 320.00,291.808, 320.00,336.00
	c0.00,5.472, 0.576,10.816, 1.632,16.00L 190.40,352.00 C 191.424,346.816, 192.00,341.472, 192.00,336.00C 192.00,291.808, 156.192,256.00, 112.00,256.00C 93.92,256.00, 77.408,262.24, 64.00,272.352L 64.00,32.00 l 384.00,0.00 L 448.00,272.352 z
	 M 160.00,160.00L 96.00,160.00 L 96.00,224.00 l 64.00,0.00 L 160.00,160.00 z M 160.00,64.00L 96.00,64.00 l0.00,64.00 l 64.00,0.00 L 160.00,64.00 z M 288.00,160.00L 224.00,160.00 L 224.00,224.00 l 64.00,0.00 L 288.00,160.00 z M 288.00,64.00L 224.00,64.00 l0.00,64.00 l 64.00,0.00 L 288.00,64.00 z M 416.00,160.00l-64.00,0.00 L 352.00,224.00 l 64.00,0.00 L 416.00,160.00 z M 416.00,64.00l-64.00,0.00 l0.00,64.00 l 64.00,0.00 L 416.00,64.00 z M 384.00,480.00l 32.00,0.00 l0.00-128.00 l-32.00,0.00 L 384.00,480.00 z M 96.00,480.00l 32.00,0.00 
	l0.00-128.00 L 96.00,352.00 L 96.00,480.00 z" />
<glyph unicode="&#x4c;" d="M 256.00,480.00C 167.648,480.00, 96.00,408.352, 96.00,320.00c0.00-10.976, 1.12-21.696, 3.232-32.032l 27.712-61.824L 256.00-32.00
	l 129.056,258.144l 27.68,61.824C 414.88,298.304, 416.00,309.024, 416.00,320.00C 416.00,408.352, 344.384,480.00, 256.00,480.00z M 256.00,256.00C 220.672,256.00, 192.00,284.64, 192.00,320.00s 28.672,64.00, 64.00,64.00s 64.00-28.672, 64.00-64.00
	S 291.328,256.00, 256.00,256.00z" />
<glyph unicode="&#x4d;" d="M 480.00,32.00l0.00-32.00 l-32.00,0.00 l0.00-32.00 L0.00-32.00 l0.00,96.00 l 384.00,0.00 l0.00,32.00 l 32.00,0.00 L 416.00,288.00 l-32.00,0.00 L 384.00,320.00 L 128.00,320.00 l0.00-64.00 L 96.00,256.00 L 96.00,288.00 L 64.00,288.00 L 64.00,320.00 L 32.00,320.00 L 32.00,352.00 L0.00,352.00 L0.00,384.00 l 32.00,0.00 L 32.00,416.00 l 32.00,0.00 L 64.00,448.00 l 32.00,0.00 L 96.00,480.00 l 32.00,0.00 l0.00-64.00 l 320.00,0.00 l0.00-32.00 
	l 32.00,0.00 l0.00-32.00 l 32.00,0.00 l0.00-320.00 L 480.00,32.00 z" />
<glyph unicode="&#x4e;" d="M 128.00,96.00l0.00-32.00 l 384.00,0.00 l0.00-96.00 L 64.00-32.00 l0.00,32.00 L 32.00,0.00 l0.00,32.00 L0.00,32.00 L0.00,352.00 l 32.00,0.00 L 32.00,384.00 l 32.00,0.00 L 64.00,416.00 l 320.00,0.00 L 384.00,480.00 l 32.00,0.00 l0.00-32.00 l 32.00,0.00 l0.00-32.00 l 32.00,0.00 l0.00-32.00 l 32.00,0.00 l0.00-32.00 l-32.00,0.00 l0.00-32.00 l-32.00,0.00 l0.00-32.00 l-32.00,0.00 l0.00-32.00 l-32.00,0.00 
	L 384.00,320.00 L 128.00,320.00 l0.00-32.00 L 96.00,288.00 l0.00-192.00 L 128.00,96.00 z" />
<glyph unicode="&#x4f;" d="M 160.00,288.00l0.00-96.00 L 128.00,192.00 L 128.00,224.00 L 96.00,224.00 L 96.00,256.00 L 64.00,256.00 L 64.00,288.00 L 32.00,288.00 L 32.00,320.00 L0.00,320.00 L0.00,352.00 l 32.00,0.00 L 32.00,384.00 l 32.00,0.00 L 64.00,416.00 l 32.00,0.00 L 96.00,448.00 l 32.00,0.00 L 128.00,480.00 l 32.00,0.00 l0.00-96.00 c0.00,0.00, 352.00,48.00, 352.00-416.00
	C 512.00,256.00, 160.00,288.00, 160.00,288.00z" />
<glyph unicode="&#x50;" d="M 480.00,320.00l0.00-32.00 l-32.00,0.00 l0.00-32.00 l-32.00,0.00 l0.00-32.00 l-32.00,0.00 l0.00-32.00 l-32.00,0.00 L 352.00,288.00 C 352.00,288.00,0.00,256.00,0.00-32.00C0.00,432.00, 352.00,384.00, 352.00,384.00L 352.00,480.00 l 32.00,0.00 l0.00-32.00 l 32.00,0.00 l0.00-32.00 l 32.00,0.00 l0.00-32.00 l 32.00,0.00 
	l0.00-32.00 l 32.00,0.00 l0.00-32.00 L 480.00,320.00 z" />
<glyph unicode="&#x51;" d="M 480.00,0.00l0.00-32.00 L 32.00-32.00 l0.00,32.00 L0.00,0.00 L0.00,448.00 l 32.00,0.00 L 32.00,480.00 l 448.00,0.00 l0.00-32.00 l 32.00,0.00 l0.00-448.00 L 480.00,0.00 z M 448.00,416.00L 64.00,416.00 l0.00-384.00 l 384.00,0.00 L 448.00,416.00 z M 160.00,320.00L 128.00,320.00 L 128.00,352.00 l 32.00,0.00 L 160.00,320.00 z M 192.00,288.00L 160.00,288.00 
	L 160.00,320.00 l 32.00,0.00 L 192.00,288.00 z M 224.00,256.00L 192.00,256.00 L 192.00,288.00 l 32.00,0.00 L 224.00,256.00 z M 160.00,224.00L 160.00,256.00 l 32.00,0.00 l0.00-32.00 L 160.00,224.00 z M 128.00,192.00L 128.00,224.00 l 32.00,0.00 l0.00-32.00 L 128.00,192.00 z M 352.00,192.00L 256.00,192.00 L 256.00,224.00 l 96.00,0.00 L 352.00,192.00 z" />
<glyph unicode="&#x52;" d="M 480.00,0.00l0.00-32.00 L 32.00-32.00 l0.00,32.00 L0.00,0.00 L0.00,448.00 l 32.00,0.00 L 32.00,480.00 l 448.00,0.00 l0.00-32.00 l 32.00,0.00 l0.00-448.00 L 480.00,0.00 z M 448.00,416.00L 64.00,416.00 l0.00-384.00 l 384.00,0.00 L 448.00,416.00 z M 416.00,352.00L 96.00,352.00 L 96.00,384.00 l 320.00,0.00 L 416.00,352.00 z M 352.00,320.00
	l 32.00,0.00 l0.00-32.00 l-32.00,0.00 L 352.00,320.00 z M 384.00,224.00l-32.00,0.00 L 352.00,256.00 l 32.00,0.00 L 384.00,224.00 z M 128.00,128.00l 32.00,0.00 l0.00,32.00 l 32.00,0.00 l0.00-32.00 l 32.00,0.00 l0.00,32.00 l 32.00,0.00 l0.00-32.00 l 32.00,0.00 l0.00,32.00 l 32.00,0.00 l0.00-32.00 l 64.00,0.00 l0.00-32.00 l 32.00,0.00 l0.00-32.00 L 96.00,64.00 l0.00,32.00 l 32.00,0.00 L 128.00,128.00 z" />
<glyph unicode="&#x53;" d="M 256.00,480.00C 256.00,480.00-130.944-32.00, 256.00-32.00S 256.00,480.00, 256.00,480.00z" />
<glyph unicode="&#x54;" d="M 256.00-32.00C-130.944-32.00, 256.00,480.00, 256.00,480.00S 642.944-32.00, 256.00-32.00z M 352.00,192.576
	c-24.00-63.872-56.00-159.68-64.00-159.68C 288.00,32.864, 416.00,64.80, 352.00,192.576z" />
<glyph unicode="&#x55;" d="M 256.00,416.00L0.00,32.00L 160.00,32.00L 256.00,256.00L 352.00,32.00L 512.00,32.00 z" />
<glyph unicode="&#x56;" d="M 256.00,32.00L0.00,416.00L 160.00,416.00L 256.00,192.00L 352.00,416.00L 512.00,416.00 z" />
<glyph unicode="&#x57;" d="M 64.00,224.00L 448.00,480.00L 448.00,320.00L 224.00,224.00L 448.00,128.00L 448.00-32.00 z" />
<glyph unicode="&#x58;" d="M 448.00,224.00L 64.00,480.00L 64.00,320.00L 288.00,224.00L 64.00,128.00L 64.00-32.00 z" />
<glyph unicode="&#x59;" d="M 360.576,480.00L-2.016,353.536L 96.544,70.944L 96.544,168.096L 38.72,333.856L 340.80,439.232L 382.048,320.992L 416.00,320.992 	zM 128.00,288.00l0.00-320.00 l 384.00,0.00 L 512.00,288.00 L 128.00,288.00 z M 480.00,0.00L 160.00,0.00 L 160.00,256.00 l 320.00,0.00 L 480.00,0.00 zM 192.00,224.00L 448.00,224.00L 448.00,32.00L 192.00,32.00z" />
<glyph unicode="&#x5a;" d="M0.00-32.00L0.00,352.00 l 224.00,96.00l0.00-32.00 L 32.00,352.00l 448.00,0.00 L 288.00,416.00L 288.00,448.00 l 224.00-96.00l0.00-384.00 L0.00-32.00 z M 32.00,320.00l0.00-320.00 l 448.00,0.00 L 480.00,320.00 L 32.00,320.00 z M 64.00,288.00l 384.00,0.00 l0.00-256.00 L 64.00,32.00 L 64.00,288.00 z M 256.00,416.00
	C 238.304,416.00, 224.00,430.336, 224.00,448.00s 14.304,32.00, 32.00,32.00s 32.00-14.336, 32.00-32.00S 273.696,416.00, 256.00,416.00z" />
<glyph unicode="&#x5b;" d="M 380.00,32.00c-3.648,0.00-7.136,0.64-10.72,0.928C 366.176,32.64, 363.20,32.00, 360.00,32.00L 96.00,32.00 c-53.024,0.00-96.00,43.008-96.00,96.00
	c0.00,45.312, 31.488,83.04, 73.728,93.12C 67.68,236.992, 64.00,254.016, 64.00,272.00C 64.00,351.52, 128.48,416.00, 208.00,416.00c 72.64,0.00, 132.032-53.888, 142.016-123.744
	c 9.696,2.272, 19.616,3.744, 30.016,3.744C 452.864,296.00, 512.00,236.896, 512.00,164.00C 512.00,91.136, 452.864,32.00, 380.00,32.00z M 320.00,224.00L 288.00,224.00 L 288.00,256.00 L 256.00,256.00 L 256.00,288.00 L 224.00,288.00 l0.00-160.00 l 32.00,0.00 l0.00,32.00 l 32.00,0.00 L 288.00,192.00 l 32.00,0.00 
	L 320.00,224.00 z" />
<glyph unicode="&#x5c;" d="M 480.00-32.00L 480.00,480.00 l 32.00,0.00 l0.00-512.00 L 480.00-32.00 z M 416.00,416.00l 32.00,0.00 l0.00-384.00 l-32.00,0.00 L 416.00,416.00 z M 128.00,416.00l 256.00,0.00 l0.00-384.00 L 128.00,32.00 L 128.00,416.00 z M 160.00,64.00l 192.00,0.00 L 352.00,384.00 L 160.00,384.00 L 160.00,64.00 z M 192.00,352.00l 128.00,0.00 l0.00-256.00 L 192.00,96.00 L 192.00,352.00 z M 64.00,416.00l 32.00,0.00 l0.00-384.00 L 64.00,32.00 L 64.00,416.00 z M0.00,480.00l 32.00,0.00 l0.00-512.00 L0.00-32.00 L0.00,480.00 z" />
<glyph unicode="&#x5d;" d="M0.00-32.00L0.00,480.00 l 512.00,0.00 l0.00-512.00 L0.00-32.00 z M 160.00,448.00L 32.00,448.00 l0.00-448.00 l 128.00,0.00 L 160.00,448.00 z M 192.00,448.00l0.00-448.00 l 128.00,0.00 L 320.00,448.00 L 192.00,448.00 z M 480.00,448.00l-128.00,0.00 l0.00-448.00 l 128.00,0.00 L 480.00,448.00 z" />
<glyph unicode="&#x5e;" d="M0.00,0.00l0.00,64.00 l 512.00,0.00 l0.00-64.00 L0.00,0.00 z M0.00,192.00l 512.00,0.00 l0.00-64.00 L0.00,128.00 L0.00,192.00 z M0.00,320.00l 512.00,0.00 l0.00-64.00 L0.00,256.00 L0.00,320.00 z M0.00,448.00l 512.00,0.00 l0.00-64.00 L0.00,384.00 L0.00,448.00 z" />
<glyph unicode="&#x5f;" d="M 288.00-32.00L 288.00,192.00 l 224.00,0.00 l0.00-224.00 L 288.00-32.00 z M 448.00,128.00l-96.00,0.00 l0.00-96.00 l 96.00,0.00 L 448.00,128.00 z M 288.00,480.00l 224.00,0.00 l0.00-224.00 L 288.00,256.00 L 288.00,480.00 z M 352.00,320.00l 96.00,0.00 L 448.00,416.00 l-96.00,0.00 L 352.00,320.00 z M0.00,192.00l 224.00,0.00 l0.00-224.00 L0.00-32.00 L0.00,192.00 z M 64.00,32.00l 96.00,0.00 l0.00,96.00 L 64.00,128.00 L 64.00,32.00 z M0.00,480.00l 224.00,0.00 l0.00-224.00 L0.00,256.00 L0.00,480.00 z M 64.00,320.00l 96.00,0.00 L 160.00,416.00 L 64.00,416.00 
	L 64.00,320.00 z" />
<glyph unicode="&#x60;" d="M 256.00,479.968L 159.968,395.968L 159.968,480.00L 127.968,480.00L 127.968,367.968L0.00,256.032L 512.00,256.032 	zM 95.968-32.00l 320.064,0.00 L 416.032,256.00 L 95.968,256.00 L 95.968-32.00 z M 192.00,160.00c0.00,35.328, 28.672,64.00, 64.00,64.00c 35.328,0.00, 64.00-28.672, 64.00-64.00l0.00-160.00 L 192.00,0.00 L 192.00,160.00 z" />
<glyph unicode="&#x61;" d="M 480.00-32.00l0.00,64.00 l-64.00,0.00 l0.00-64.00 l-32.00,0.00 L 384.00,384.00 l 128.00,0.00 l0.00-416.00 L 480.00-32.00 z M 416.00,64.00l 32.00,0.00 l0.00,32.00 l-32.00,0.00 L 416.00,64.00 z M 416.00,192.00l 32.00,0.00 L 448.00,224.00 l-32.00,0.00 L 416.00,192.00 z M 448.00,352.00l-32.00,0.00 l0.00-32.00 
	l 32.00,0.00 L 448.00,352.00 z M 480.00,288.00l-32.00,0.00 l0.00-32.00 l 32.00,0.00 L 480.00,288.00 z M 480.00,160.00l-32.00,0.00 l0.00-32.00 l 32.00,0.00 L 480.00,160.00 z M 288.00,64.00L 224.00,64.00 l0.00-96.00 L 160.00-32.00 L 160.00,480.00 l 192.00,0.00 l0.00-512.00 L 288.00-32.00 L 288.00,64.00 z M 224.00,416.00L 192.00,416.00 l0.00-32.00 l 32.00,0.00 L 224.00,416.00 z M 224.00,320.00L 192.00,320.00 l0.00-32.00 l 32.00,0.00 L 224.00,320.00 z M 224.00,224.00L 192.00,224.00 l0.00-32.00 l 32.00,0.00 L 224.00,224.00 z M 224.00,128.00L 192.00,128.00 l0.00-32.00 l 32.00,0.00 L 224.00,128.00 z
	 M 320.00,416.00L 288.00,416.00 l0.00-32.00 l 32.00,0.00 L 320.00,416.00 z M 320.00,320.00L 288.00,320.00 l0.00-32.00 l 32.00,0.00 L 320.00,320.00 z M 320.00,224.00L 288.00,224.00 l0.00-32.00 l 32.00,0.00 L 320.00,224.00 z M 320.00,128.00L 288.00,128.00 l0.00-32.00 l 32.00,0.00 L 320.00,128.00 z M 96.00,0.00L 32.00,0.00 l0.00-32.00 L0.00-32.00 L0.00,224.00 l 128.00,0.00 l0.00-256.00 L 96.00-32.00 L 96.00,0.00 z M 32.00,32.00l 32.00,0.00 l0.00,32.00 L 32.00,64.00 L 32.00,32.00 z M 64.00,192.00L 32.00,192.00 l0.00-32.00 l 32.00,0.00 L 64.00,192.00 z M 96.00,128.00L 64.00,128.00 l0.00-32.00 
	l 32.00,0.00 L 96.00,128.00 z" />
<glyph unicode="&#x62;" d="M 416.00-32.00L 96.00-32.00 c-53.024,0.00-96.00,42.976-96.00,96.00L0.00,256.00 c0.00,53.024, 42.976,96.00, 96.00,96.00l 32.00,0.00 L 128.00,480.00 l 256.00,0.00 l0.00-128.00 l 32.00,0.00 
	c 53.024,0.00, 96.00-42.976, 96.00-96.00l0.00-192.00 C 512.00,10.976, 469.024-32.00, 416.00-32.00z M 320.00,416.00L 192.00,416.00 l0.00-64.00 l 128.00,0.00 L 320.00,416.00 z M 256.00,256.00c-61.856,0.00-112.00-50.144-112.00-112.00S 194.144,32.00, 256.00,32.00
	s 112.00,50.144, 112.00,112.00S 317.856,256.00, 256.00,256.00z M 288.00,160.00c-17.696,0.00-32.00,14.304-32.00,32.00s 14.304,32.00, 32.00,32.00s 32.00-14.304, 32.00-32.00S 305.696,160.00, 288.00,160.00z" />
<glyph unicode="&#x63;" d="M 384.00,224.00L 256.00,224.00 l 90.496,90.496C 323.328,337.696, 291.328,352.00, 256.00,352.00C 185.312,352.00, 128.00,294.688, 128.00,224.00
	s 57.312-128.00, 128.00-128.00c 47.264,0.00, 88.064,25.92, 110.24,64.00l 137.376,0.00 c-28.48-110.336-128.384-192.00-247.616-192.00c-141.376,0.00-256.00,114.624-256.00,256.00s 114.624,256.00, 256.00,256.00
	c 70.688,0.00, 134.688-28.672, 181.024-74.976L 512.00,480.00l0.00-256.00 L 384.00,224.00 z" />
<glyph unicode="&#x64;" d="M 512.00,480.00l-74.976-74.976C 390.688,451.328, 326.688,480.00, 256.00,480.00C 136.736,480.00, 36.832,398.336, 8.416,288.00l 137.344,0.00 C 167.936,326.08, 208.736,352.00, 256.00,352.00
		c 35.328,0.00, 67.328-14.304, 90.496-37.504L 256.00,224.00l 256.00,0.00 L 512.00,480.00 zM 366.24,160.00C 344.064,121.92, 303.264,96.00, 256.00,96.00c-35.328,0.00-67.328,14.304-90.496,37.504L 256.00,224.00L0.00,224.00 l0.00-256.00 l 74.976,74.976C 121.312-3.328, 185.312-32.00, 256.00-32.00
		c 119.264,0.00, 219.168,81.664, 247.616,192.00L 366.24,160.00 z" />
<glyph unicode="&#x65;" d="M 256.00,480.00C 185.312,480.00, 121.312,451.328, 74.976,405.024L0.00,480.00l0.00-256.00 l 256.00,0.00 L 165.504,314.496
	C 188.672,337.696, 220.672,352.00, 256.00,352.00c 70.688,0.00, 128.00-57.312, 128.00-128.00s-57.312-128.00-128.00-128.00c-47.264,0.00-88.064,25.92-110.24,64.00L 8.384,160.00 c 28.48-110.336, 128.384-192.00, 247.616-192.00
	c 141.376,0.00, 256.00,114.624, 256.00,256.00S 397.376,480.00, 256.00,480.00z" />
<glyph unicode="&#x66;" d="M 480.00,64.00l0.00-32.00 L 32.00,32.00 l0.00,32.00 L0.00,64.00 L0.00,288.00 l 512.00,0.00 l0.00-224.00 L 480.00,64.00 z M 288.00,192.00L 64.00,192.00 l0.00-64.00 l 224.00,0.00 L 288.00,192.00 z M 448.00,192.00l-96.00,0.00 l0.00-64.00 l 96.00,0.00 L 448.00,192.00 z M0.00,384.00l 32.00,0.00 L 32.00,416.00 l 448.00,0.00 l0.00-32.00 l 32.00,0.00 l0.00-32.00 
	L0.00,352.00 L0.00,384.00 z" />
<glyph unicode="&#x67;" d="M 411.20,94.976L 354.24,130.56C 391.552,159.872, 416.00,204.864, 416.00,256.00
	s-24.448,96.128-61.76,125.408l 56.928,35.616C 453.472,376.288, 480.00,319.328, 480.00,256.00S 453.472,135.712, 411.20,94.976z M 325.312,148.672L 294.304,168.064
	C 328.256,182.848, 352.00,216.64, 352.00,256.00s-23.744,73.152-57.696,87.936l 31.008,19.392C 360.576,340.576, 384.00,301.088, 384.00,256.00S 360.576,171.424, 325.312,148.672z
	 M 255.008,207.008c-28.704,0.00-52.00,21.504-52.00,48.00s 23.296,48.00, 52.00,48.00s 52.00-21.504, 52.00-48.00S 283.712,207.008, 255.008,207.008z M 256.00,480.00
	c 0.064,0.00, 0.128-0.032, 0.16-0.032l-0.32,0.00 C 255.872,479.968, 255.936,480.00, 256.00,480.00z M 160.00,256.00c0.00-39.36, 23.776-73.152, 57.696-87.936l-31.04-19.392
	C 151.424,171.424, 128.00,210.912, 128.00,256.00s 23.424,84.576, 58.656,107.328l 31.04-19.392C 183.776,329.152, 160.00,295.36, 160.00,256.00z M 96.00,256.00c0.00-51.136, 24.416-96.128, 61.76-125.408
	l-56.96-35.616C 58.528,135.712, 32.00,192.672, 32.00,256.00s 26.528,120.288, 68.80,161.024l 56.96-35.616C 120.416,352.128, 96.00,307.136, 96.00,256.00z M 320.00-32.00L 192.00-32.00 l 64.00,224.00L 320.00-32.00z" />
<glyph unicode="&#x68;" d="M 448.00,352.00c-17.184,0.00-32.704,6.88-44.224,17.92L 127.232,231.616C 127.52,229.088, 128.00,226.592, 128.00,224.00
	c0.00-2.624-0.48-5.088-0.768-7.616l 276.544-138.272C 415.296,89.12, 430.816,96.00, 448.00,96.00c 35.328,0.00, 64.00-28.672, 64.00-64.00s-28.672-64.00-64.00-64.00s-64.00,28.672-64.00,64.00
	c0.00,2.592, 0.48,5.088, 0.736,7.616L 108.224,177.92C 96.704,166.88, 81.184,160.00, 64.00,160.00c-35.328,0.00-64.00,28.672-64.00,64.00s 28.672,64.00, 64.00,64.00
	c 17.184,0.00, 32.704-6.88, 44.224-17.92l 276.544,138.272C 384.48,410.912, 384.00,413.408, 384.00,416.00c0.00,35.328, 28.672,64.00, 64.00,64.00s 64.00-28.672, 64.00-64.00S 483.328,352.00, 448.00,352.00z" />
<glyph unicode="&#x69;" d="M 456.00,0.00l0.00-32.00 L 64.00-32.00 l0.00,32.00 L 32.00,0.00 L 32.00,448.00 l 32.00,0.00 L 64.00,480.00 l 384.00,0.00 l0.00-32.00 l 32.00,0.00 l0.00-448.00 L 456.00,0.00 z M 352.00,32.00l 64.00,0.00 l0.00,64.00 l-64.00,0.00 L 352.00,32.00 z M 352.00,128.00l 64.00,0.00 L 416.00,192.00 l-64.00,0.00 
	L 352.00,128.00 z M 352.00,224.00l 64.00,0.00 L 416.00,288.00 l-64.00,0.00 L 352.00,224.00 z M 224.00,32.00l 64.00,0.00 l0.00,64.00 L 224.00,96.00 L 224.00,32.00 z M 224.00,128.00l 64.00,0.00 L 288.00,192.00 L 224.00,192.00 L 224.00,128.00 z M 224.00,224.00l 64.00,0.00 L 288.00,288.00 L 224.00,288.00 L 224.00,224.00 z M 96.00,32.00l 64.00,0.00 l0.00,64.00 L 96.00,96.00 L 96.00,32.00 z M 96.00,128.00l 64.00,0.00 L 160.00,192.00 L 96.00,192.00 L 96.00,128.00 z M 96.00,224.00l 64.00,0.00 L 160.00,288.00 L 96.00,288.00 L 96.00,224.00 z M 448.00,416.00L 64.00,416.00 l0.00-64.00 l 384.00,0.00 
	L 448.00,416.00 z" />
<glyph unicode="&#x6a;" d="M0.00-32.00L0.00,480.00 l 512.00,0.00 l0.00-512.00 L0.00-32.00 z M 96.00,448.00L 32.00,448.00 l0.00-64.00 l 64.00,0.00 L 96.00,448.00 z M 96.00,320.00L 32.00,320.00 l0.00-64.00 l 64.00,0.00 L 96.00,320.00 z M 96.00,192.00L 32.00,192.00 l0.00-64.00 l 64.00,0.00 L 96.00,192.00 z M 96.00,64.00L 32.00,64.00 l0.00-64.00 l 64.00,0.00 L 96.00,64.00 z
	 M 192.00,288.00l0.00-128.00 l 128.00,64.00L 192.00,288.00z M 480.00,448.00l-64.00,0.00 l0.00-64.00 l 64.00,0.00 L 480.00,448.00 z M 480.00,320.00l-64.00,0.00 l0.00-64.00 l 64.00,0.00 L 480.00,320.00 z M 480.00,192.00l-64.00,0.00 l0.00-64.00 l 64.00,0.00 L 480.00,192.00 z M 480.00,64.00l-64.00,0.00 l0.00-64.00 l 64.00,0.00 L 480.00,64.00 z" />
<glyph unicode="&#x6b;" d="M 489.056,13.568l 22.624-22.624l-22.624-22.624l-22.624,22.624l-22.624-22.624
	L 233.792,178.336c-22.08-11.52-46.848-18.656-73.472-18.656c-88.384,0.00-160.00,71.616-160.00,160.00s 71.616,160.00, 160.00,160.00s 160.00-71.616, 160.00-160.00c0.00-26.624-7.136-51.36-18.656-73.472
	l 210.016-210.016L 489.056,13.568z M 160.32,383.68c-35.328,0.00-64.00-28.672-64.00-64.00s 28.672-64.00, 64.00-64.00s 64.00,28.672, 64.00,64.00S 195.648,383.68, 160.32,383.68z" />
<glyph unicode="&#x6c;" d="M 422.528,47.04L 480.00-32.00l-129.824,64.896C 345.44,32.672, 340.832,32.00, 336.00,32.00
	C 238.784,32.00, 160.00,82.144, 160.00,144.00c0.00,6.208, 1.344,12.224, 2.88,18.176C 175.104,161.088, 187.296,160.00, 200.00,160.00c 97.952,0.00, 181.824,33.248, 222.112,81.12
	C 475.52,221.888, 512.00,185.856, 512.00,144.00C 512.00,102.272, 475.712,66.272, 422.528,47.04z M 208.00,192.00C 193.60,192.00, 179.488,193.024, 165.92,194.976L 32.00,128.00l 63.392,87.20
	C 38.112,240.832,0.00,285.248,0.00,336.00C0.00,415.52, 93.12,480.00, 208.00,480.00S 416.00,415.52, 416.00,336.00S 322.88,192.00, 208.00,192.00z" />
<glyph unicode="&#x6d;" d="M 480.00,224.00c0.00,17.696-28.672,32.00-64.00,32.00s-64.00-14.304-64.00-32.00l-32.00,0.00 c0.00,11.808-12.928,22.016-32.00,27.552L 288.00-32.00 L 224.00-32.00 
	c-35.328,0.00-64.00,28.672-64.00,64.00c0.00,23.616, 12.928,44.032, 32.00,55.136L 192.00,32.00 l 32.00,0.00 l0.00,64.00 L 224.00,251.552 C 204.928,246.016, 192.00,235.808, 192.00,224.00L 160.00,224.00 c0.00,17.696-28.672,32.00-64.00,32.00S 32.00,241.696, 32.00,224.00L0.00,224.00 
	c0.00,141.376, 114.624,256.00, 256.00,256.00s 256.00-114.624, 256.00-256.00L 480.00,224.00 z" />
<glyph unicode="&#x6e;" d="M 448.00,160.00c-144.80,0.00,0.00,192.00,0.00,192.00S 592.80,160.00, 448.00,160.00z M 288.192-32.00c-217.216,0.00,0.00,288.00,0.00,288.00
	S 505.408-32.00, 288.192-32.00z M 96.192,192.00c-217.216,0.00,0.00,288.00,0.00,288.00S 313.408,192.00, 96.192,192.00z" />
<glyph unicode="&#x6f;" d="M 416.00,192.00L 416.00,256.00 l 96.00,0.00 l0.00-64.00 L 416.00,192.00 z M 348.864,363.264l 67.872,67.872l 45.248-45.248l-67.872-67.872
	L 348.864,363.264z M 256.00,96.00c-70.688,0.00-128.00,57.312-128.00,128.00s 57.312,128.00, 128.00,128.00s 128.00-57.312, 128.00-128.00S 326.688,96.00, 256.00,96.00z M 224.00,480.00l 64.00,0.00 l0.00-96.00 L 224.00,384.00 L 224.00,480.00 z M 48.992,385.888l 45.248,45.248
	l 67.872-67.872L 116.864,318.016L 48.992,385.888z M 96.00,192.00L0.00,192.00 L0.00,256.00 l 96.00,0.00 L 96.00,192.00 z M 160.128,85.76l-67.872-67.872l-45.248,45.248l 67.872,67.872L 160.128,85.76z M 288.00-32.00L 224.00-32.00 l0.00,96.00 
	l 64.00,0.00 L 288.00-32.00 z M 464.00,63.136l-45.248-45.248l-67.872,67.872l 45.248,45.248L 464.00,63.136z" />
<glyph unicode="&#x70;" d="M 480.00,192.00l0.00-32.00 l-64.00,0.00 l0.00-64.00 l-32.00,0.00 L 384.00,352.00 l 32.00,0.00 l0.00-64.00 l 64.00,0.00 l0.00-32.00 l 32.00,0.00 l0.00-64.00 L 480.00,192.00 z M 384.00,64.00L 32.00,64.00 l0.00,32.00 l 352.00,0.00 L 384.00,64.00 z M0.00,96.00L0.00,352.00 l 32.00,0.00 l0.00-256.00 L0.00,96.00 z M 32.00,384.00
	l 352.00,0.00 l0.00-32.00 L 32.00,352.00 L 32.00,384.00 z" />
<glyph unicode="&#x71;" d="M 480.00,192.00l0.00-32.00 l-64.00,0.00 l0.00-64.00 l-32.00,0.00 L 384.00,352.00 l 32.00,0.00 l0.00-64.00 l 64.00,0.00 l0.00-32.00 l 32.00,0.00 l0.00-64.00 L 480.00,192.00 z M 160.00,128.00l 32.00,96.00L 128.00,224.00 l 128.00,96.00L 224.00,224.00l 64.00,0.00 L 160.00,128.00z M 384.00,64.00L 32.00,64.00 l0.00,32.00 
	l 352.00,0.00 L 384.00,64.00 z M0.00,96.00L0.00,352.00 l 32.00,0.00 l0.00-256.00 L0.00,96.00 z M 32.00,384.00l 352.00,0.00 l0.00-32.00 L 32.00,352.00 L 32.00,384.00 z" />
<glyph unicode="&#x72;" d="M 480.00,192.00l0.00-32.00 l-64.00,0.00 l0.00-64.00 l-32.00,0.00 L 384.00,352.00 l 32.00,0.00 l0.00-64.00 l 64.00,0.00 l0.00-32.00 l 32.00,0.00 l0.00-64.00 L 480.00,192.00 z M 64.00,320.00l 96.00,0.00 l0.00-192.00 L 64.00,128.00 L 64.00,320.00 z M 384.00,64.00L 32.00,64.00 l0.00,32.00 l 352.00,0.00 L 384.00,64.00 z M0.00,96.00L0.00,352.00 
	l 32.00,0.00 l0.00-256.00 L0.00,96.00 z M 32.00,384.00l 352.00,0.00 l0.00-32.00 L 32.00,352.00 L 32.00,384.00 z" />
<glyph unicode="&#x73;" d="M 32.00,96.00L 384.00,96.00L 384.00,64.00L 32.00,64.00zM0.00,352.00L 32.00,352.00L 32.00,96.00L0.00,96.00zM 32.00,384.00L 384.00,384.00L 384.00,352.00L 32.00,352.00zM 64.00,320.00L 256.00,320.00L 256.00,128.00L 64.00,128.00zM 480.00,256.00L 480.00,288.00L 416.00,288.00L 416.00,352.00L 384.00,352.00L 384.00,96.00L 416.00,96.00L 416.00,160.00L 480.00,160.00L 480.00,192.00L 512.00,192.00L 512.00,256.00 	z" />
<glyph unicode="&#x74;" d="M0.00,352.00L 32.00,352.00L 32.00,96.00L0.00,96.00zM 32.00,96.00L 384.00,96.00L 384.00,64.00L 32.00,64.00zM 64.00,320.00L 352.00,320.00L 352.00,128.00L 64.00,128.00zM 480.00,256.00L 480.00,288.00L 416.00,288.00L 416.00,352.00L 384.00,352.00L 384.00,96.00L 416.00,96.00L 416.00,160.00L 480.00,160.00L 480.00,192.00L 512.00,192.00L 512.00,256.00 	zM 32.00,384.00L 384.00,384.00L 384.00,352.00L 32.00,352.00z" />
<glyph unicode="&#x75;" d="M 480.00,192.00l0.00-32.00 l-64.00,0.00 l0.00-64.00 l-32.00,0.00 L 384.00,352.00 l 32.00,0.00 l0.00-64.00 l 64.00,0.00 l0.00-32.00 l 32.00,0.00 l0.00-64.00 L 480.00,192.00 z M 192.00,160.00l 32.00,0.00 l0.00-32.00 L 192.00,128.00 L 192.00,160.00 z M 192.00,320.00l 32.00,0.00 l0.00-128.00 L 192.00,192.00 L 192.00,320.00 z M 384.00,64.00L 32.00,64.00 
	l0.00,32.00 l 352.00,0.00 L 384.00,64.00 z M0.00,96.00L0.00,352.00 l 32.00,0.00 l0.00-256.00 L0.00,96.00 z M 32.00,384.00l 352.00,0.00 l0.00-32.00 L 32.00,352.00 L 32.00,384.00 z" />
<glyph unicode="&#x76;" d="M 347.552,180.736c0.00,0.00, 9.44,224.928, 164.384,258.816
	C 422.688,344.032, 399.264,291.68, 347.552,180.736z M 449.312,214.496c-29.248-46.112-73.504-109.056-100.064-197.184
	C 349.248,17.312, 306.432,151.936, 449.312,214.496z M 201.728,480.00c 218.592-259.52, 79.968-417.696, 37.216-473.344C 238.944,6.688, 322.944,187.552, 201.728,480.00z
	 M 64.736,394.848c 192.96-159.648, 125.12-251.68, 125.12-251.68C 170.656,233.28, 113.088,324.384, 64.736,394.848z M 197.216,42.816L 182.72-32.00
	c-23.872,69.056, 8.032,179.936-182.656,312.80C 220.832,178.048, 197.216,42.816, 197.216,42.816z M 479.136,127.072c 17.984,9.568-26.24-53.952-87.20-113.056
	C 391.936,14.016, 389.184,105.696, 479.136,127.072z" />
<glyph unicode="&#x77;" d="M 224.00,448.00L 224.00,256.00L 192.00,256.00L 192.00,480.00L 128.00,480.00L 128.00,256.00L 96.00,256.00L 96.00,448.00L 32.00,448.00L 32.00,224.00L 128.00,224.00L 128.00-32.00L 192.00-32.00L 192.00,224.00L 288.00,224.00L 288.00,448.00 	zM 448.00,480.00L 448.00,448.00L 416.00,448.00L 416.00,416.00L 384.00,416.00L 384.00,192.00L 416.00,192.00L 416.00-32.00L 480.00-32.00L 480.00,480.00 	z" />
<glyph unicode="&#x78;" d="M 298.528,134.272l 62.24-145.664l-51.072-20.48l-62.016,145.088l-119.68-49.536L 128.00,479.616
	l 0.48,0.224l 295.168-293.792L 298.528,134.272z" />
<glyph unicode="&#x79;" d="M0.00-32.00L0.00,288.00 l 512.00,0.00 l0.00-320.00 L0.00-32.00 z M 384.00,128.00L 128.00,128.00 l0.00-128.00 l 256.00,0.00 L 384.00,128.00 z M 352.00,64.00L 160.00,64.00 l0.00,32.00 l 192.00,0.00 L 352.00,64.00 z M 64.00,352.00l 384.00,0.00 l0.00-32.00 L 64.00,320.00 L 64.00,352.00 z M 96.00,416.00l 320.00,0.00 
	l0.00-32.00 L 96.00,384.00 L 96.00,416.00 z M 128.00,480.00l 256.00,0.00 l0.00-32.00 L 128.00,448.00 L 128.00,480.00 z" />
<glyph unicode="&#x7a;" d="M 507.52,384.00L 480.00,384.00 L 2.464,384.00 L0.00,384.00 l0.00-24.00 L0.00,352.00 l0.00-10.656 l0.00-236.608 L0.00,96.00 l0.00-32.00 l 32.00,0.00 l 448.00,0.00 l 31.008,0.00 L 512.00,64.00 l0.00,1.28 L 512.00,96.00 l0.00,7.968 
	L 512.00,342.784 L 512.00,352.00 L 512.00,384.00 L 507.52,384.00 z M 480.00,319.616l-125.952-91.20L 480.00,129.184L 480.00,96.00 l-9.60,0.00 l-143.296,112.928L 259.904,160.256L 250.08,160.256 L 183.36,208.576L 40.608,96.00L 32.00,96.00 l0.00,33.984 
	l 124.448,98.08L 32.00,318.144L 32.00,352.00 l 14.656,0.00 l 208.32-150.848L 463.328,352.00L 480.00,352.00 L 480.00,319.616 z" />
<glyph unicode="&#x7b;" d="M 256.00,288.00c-106.016,0.00-192.00-85.984-192.00-192.00L0.00,96.00 c0.00,141.376, 114.624,256.00, 256.00,256.00c 141.376,0.00, 256.00-114.624, 256.00-256.00l-64.00,0.00 
	C 448.00,202.016, 362.016,288.00, 256.00,288.00z M 256.00,224.00c 70.688,0.00, 128.00-57.312, 128.00-128.00l-56.416,0.00 c-2.08,35.648-31.392,64.00-67.584,64.00s-65.472-28.352-67.584-64.00L 128.00,96.00 C 128.00,166.688, 185.312,224.00, 256.00,224.00
	z" />
<glyph unicode="&#x7c;" d="M 352.00,416.00L 352.00,480.00 L 160.00,480.00 l0.00-64.00 L0.00,416.00 l0.00-64.00 l 512.00,0.00 L 512.00,416.00 L 352.00,416.00 z M 320.00,416.00L 192.00,416.00 L 192.00,448.00 l 128.00,0.00 L 320.00,416.00 zM 160.00,320.00C 106.976,320.00, 168.00,320.00, 64.00,320.00l0.00-256.00 c0.00-53.024, 42.976-96.00, 96.00-96.00l 192.00,0.00 c 52.992,0.00, 96.00,42.976, 96.00,96.00L 448.00,320.00 c-96.00,0.00-43.008,0.00-96.00,0.00L 160.00,320.00 z M 192.00,64.00L 128.00,64.00 L 128.00,256.00 l 64.00,0.00 L 192.00,64.00 z M 288.00,64.00L 224.00,64.00 L 224.00,256.00 l 64.00,0.00 
		L 288.00,64.00 z M 384.00,64.00l-64.00,0.00 L 320.00,256.00 l 64.00,0.00 L 384.00,64.00 z" />
<glyph unicode="&#x7d;" d="M 160.00,416.00C 106.976,416.00, 64.00,373.024, 64.00,320.00s 42.976-96.00, 96.00-96.00s 96.00,42.976, 96.00,96.00S 213.024,416.00, 160.00,416.00z M 160.00,256.00C 124.704,256.00, 96.00,284.704, 96.00,320.00s 28.704,64.00, 64.00,64.00s 64.00-28.704, 64.00-64.00
		S 195.296,256.00, 160.00,256.00zM 128.00,320.00A32.00,32.00 540.00 1,0 192.00,320A32.00,32.00 540.00 1,0 128.00,320zM 512.00,13.248L 293.376,231.872C 310.112,257.152, 320.00,287.392, 320.00,320.00c0.00,88.352-71.648,160.00-160.00,160.00S0.00,408.352,0.00,320.00s 71.648-160.00, 160.00-160.00
		c 32.608,0.00, 62.848,9.888, 88.128,26.624L 466.752-32.00L 512.00,13.248z M 32.00,320.00c0.00,70.592, 57.408,128.00, 128.00,128.00s 128.00-57.408, 128.00-128.00S 230.592,192.00, 160.00,192.00S 32.00,249.408, 32.00,320.00z" />
<glyph unicode="&#xe000;" d="M 436.992,42.976c-99.936-99.968-262.048-99.968-362.016,0.00
	c-100.00,100.00-100.00,262.048,0.00,362.048c 99.968,99.968, 262.08,99.968, 362.016,0.00C 536.992,305.024, 536.992,142.976, 436.992,42.976z M 120.224,359.744
	c-74.976-74.976-74.976-196.544,0.00-271.52l 271.52,271.52C 316.768,434.752, 195.232,434.752, 120.224,359.744z" />
<glyph unicode="&#xe001;" d="M 486.016,128.00l0.00,32.00 L 416.00,160.00 L 416.00,384.00 L 192.00,384.00 L 192.00,448.00 L 160.00,448.00 L 160.00,480.00 L 128.00,480.00 l0.00-32.00 L 96.00,448.00 l0.00-64.00 L 25.984,384.00 l0.00-32.00 L0.00,352.00 l0.00-32.00 l 25.984,0.00 l0.00-32.00 L 96.00,288.00 l0.00-224.00 l 224.00,0.00 l0.00-64.00 l 32.00,0.00 l0.00-32.00 l 32.00,0.00 l0.00,32.00 l 32.00,0.00 
	l0.00,64.00 l 70.016,0.00 l0.00,32.00 L 512.00,96.00 l0.00,32.00 L 486.016,128.00 z M 320.00,160.00L 192.00,160.00 L 192.00,288.00 l 128.00,0.00 L 320.00,160.00 z" />
<glyph unicode="&#xe002;" d="M 320.00,160.00L 320.00,192.00 L 288.00,192.00 L 288.00,331.104 c 19.072,13.856, 32.00,39.36, 32.00,68.896C 320.00,444.192, 291.328,480.00, 256.00,480.00C 220.672,480.00, 192.00,444.192, 192.00,400.00c0.00-29.536, 12.928-55.04, 32.00-68.896L 224.00,192.00 L 192.00,192.00 l0.00-32.00 
	L0.00,160.00 l0.00-128.00 l 32.00,0.00 l0.00-32.00 l 32.00,0.00 l0.00-32.00 l 384.00,0.00 l0.00,32.00 l 32.00,0.00 l0.00,32.00 l 32.00,0.00 l0.00,128.00 L 320.00,160.00 z" />
<glyph unicode="&#xe003;" d="M 288.00,480.00l 224.00-224.00L 288.00,256.00 L 288.00,480.00 z M 512.00,112.00c0.00-79.52-114.624-144.00-256.00-144.00s-256.00,64.48-256.00,144.00
	c0.00,5.408, 0.64,10.752, 1.664,16.00L 224.00,128.00 L 224.00,480.00 l 32.00,0.00 l0.00-352.00 l 254.336,0.00 C 511.36,122.752, 512.00,117.408, 512.00,112.00z" />
<glyph unicode="&#xe004;" d="M 448.00,288.00L 448.00,416.00L 288.00,416.00L 288.00,480.00L 160.00,480.00L 160.00,416.00L0.00,416.00L0.00,288.00L 64.00,288.00L 64.00,160.00L0.00,160.00L0.00-32.00L 160.00-32.00L 160.00,32.00L 288.00,32.00L 288.00-32.00L 448.00-32.00L 448.00,160.00L 512.00,160.00L 512.00,288.00 z" />
<glyph unicode="&#xe005;" d="M 383.488,390.016L 383.488,416.00 l-64.00,0.00 c0.00-35.328-28.672-64.00-64.00-64.00s-64.00,28.672-64.00,64.00l-24.64,0.00 L 143.264,416.00 L 127.488,416.00 
	l0.00-10.624 L 0.32,319.584L 54.016,240.00l 73.504,49.568L 127.52,0.00 l 256.00,0.00 L 383.52,274.24 L 457.984,224.00l 53.696,79.584L 383.488,390.016z" />
<glyph unicode="&#xe006;" d="M 256.00-32.00c-141.376,0.00-256.00,114.624-256.00,256.00s 114.624,256.00, 256.00,256.00c 141.376,0.00, 256.00-114.624, 256.00-256.00S 397.376-32.00, 256.00-32.00z
	 M 288.00,128.00c0.00,17.696-14.304,32.00-32.00,32.00c-17.664,0.00-32.00-14.304-32.00-32.00s 14.336-32.00, 32.00-32.00C 273.696,96.00, 288.00,110.304, 288.00,128.00z M 256.00,416.00C 149.984,416.00, 64.00,330.016, 64.00,224.00s 85.984-192.00, 192.00-192.00
	c-53.024,0.00-96.00,42.976-96.00,96.00s 42.976,96.00, 96.00,96.00c 52.992,0.00, 96.00,42.976, 96.00,96.00S 308.992,416.00, 256.00,416.00z M 256.00,288.00C 238.336,288.00, 224.00,302.304, 224.00,320.00c0.00,17.664, 14.336,32.00, 32.00,32.00
	c 17.696,0.00, 32.00-14.336, 32.00-32.00C 288.00,302.304, 273.696,288.00, 256.00,288.00z" />
<glyph unicode="&#xe007;" d="M 240.00,384.00C 269.312,384.00, 296.384,375.552, 320.00,361.824L 320.00,480.00 L 160.00,480.00 l0.00-118.208 C 183.616,375.552, 210.688,384.00, 240.00,384.00zM 240.00,64.00c-29.312,0.00-56.384,8.448-80.00,22.176L 160.00-32.00 l 160.00,0.00 l0.00,118.176 
	C 296.384,72.448, 269.312,64.00, 240.00,64.00zM 240.00,348.00C 171.52,348.00, 116.00,292.48, 116.00,224.00c0.00-68.512, 55.52-124.00, 124.00-124.00
	c 68.512,0.00, 124.00,55.488, 124.00,124.00C 364.00,292.48, 308.512,348.00, 240.00,348.00z M 320.00,224.00L 224.00,224.00 L 224.00,320.00 l 32.00,0.00 l0.00-64.00 l 64.00,0.00 L 320.00,224.00 z" />
<glyph unicode="&#xe008;" d="M 384.00-32.00L 384.00,448.00 l 32.00,0.00 L 416.00,480.00 l 32.00,0.00 l0.00-32.00 l 32.00,0.00 l0.00-480.00 L 384.00-32.00 z M 256.00,320.00l 32.00,0.00 L 288.00,352.00 l 32.00,0.00 l0.00-32.00 l 32.00,0.00 l0.00-352.00 L 256.00-32.00 L 256.00,320.00 z M 128.00,192.00l 32.00,0.00 L 160.00,224.00 l 32.00,0.00 l0.00-32.00 l 32.00,0.00 l0.00-224.00 L 128.00-32.00 L 128.00,192.00 z
	 M0.00,64.00l 32.00,0.00 l0.00,32.00 l 32.00,0.00 l0.00-32.00 l 32.00,0.00 l0.00-96.00 L0.00-32.00 L0.00,64.00 z" />
<glyph unicode="&#xe009;" d="M 493.60,461.568c-24.992,24.992-65.536,24.992-90.528,0.00L 18.40,76.928
	c-24.992-24.992-24.992-65.504,0.00-90.496c 24.992-24.992, 65.504-24.992, 90.496,0.00l 384.672,384.64C 518.592,396.064, 518.592,436.608, 493.60,461.568z
	 M 470.976,393.696L 305.632,228.384c-2.752,10.752-7.296,21.12-15.68,29.568c-8.448,8.416-18.816,12.928-29.60,15.68l 165.344,165.312
	c 12.512,12.512, 32.768,12.512, 45.28,0.00C 483.456,426.496, 483.456,406.208, 470.976,393.696z" />
<glyph unicode="&#xe00a;" d="M 96.00,414.40l0.00-288.608 c-5.152,1.024-10.528,1.632-16.00,1.632c-44.192,0.00-80.00-35.68-80.00-79.712S 35.808-32.00, 80.00-32.00S 160.00,3.68, 160.00,47.68L 160.00,360.704 
	l 288.00,45.44l0.00-216.576 c-5.152,1.056-10.528,1.632-16.00,1.632c-44.192,0.00-80.00-35.68-80.00-79.68c0.00-44.064, 35.808-79.712, 80.00-79.712s 80.00,35.648, 80.00,79.712
	l0.00,15.936 L 512.00,480.00 L 96.00,414.40z" />
<glyph unicode="&#xe00b;" d="M 256.00,480.00C 114.624,480.00,0.00,365.376,0.00,224.00s 114.624-256.00, 256.00-256.00s 256.00,114.624, 256.00,256.00S 397.376,480.00, 256.00,480.00z M 384.00,144.00
	c0.00-26.496-21.504-48.00-48.00-48.00S 288.00,117.504, 288.00,144.00S 309.504,192.00, 336.00,192.00c 5.696,0.00, 10.944-1.44, 16.00-3.232L 352.00,320.00 L 224.00,320.00 l0.00-176.00 C 224.00,117.504, 202.496,96.00, 176.00,96.00
	S 128.00,117.504, 128.00,144.00S 149.504,192.00, 176.00,192.00C 181.696,192.00, 186.944,190.56, 192.00,188.768L 192.00,352.00 l 192.00,0.00 L 384.00,144.00 z" />
<glyph unicode="&#xe00c;" d="M 480.00,0.00L 480.00,416.00 L 32.00,416.00 l0.00-416.00 L0.00,0.00 L0.00,448.00 l 32.00,0.00 L 32.00,480.00 l 448.00,0.00 l0.00-32.00 l 32.00,0.00 l0.00-448.00 L 480.00,0.00 z M 96.00,320.00L 64.00,320.00 L 64.00,352.00 l 32.00,0.00 L 96.00,320.00 z M 160.00,352.00l0.00-32.00 L 128.00,320.00 L 128.00,352.00 L 160.00,352.00 z M 192.00,384.00l0.00-32.00 L 160.00,352.00 L 160.00,384.00 
	L 192.00,384.00 z M 128.00,288.00L 96.00,288.00 L 96.00,320.00 l 32.00,0.00 L 128.00,288.00 z M 96.00,192.00L 64.00,192.00 L 64.00,224.00 l 32.00,0.00 L 96.00,192.00 z M 160.00,224.00l0.00-32.00 L 128.00,192.00 L 128.00,224.00 L 160.00,224.00 z M 192.00,256.00l0.00-32.00 L 160.00,224.00 L 160.00,256.00 L 192.00,256.00 z M 128.00,160.00L 96.00,160.00 L 96.00,192.00 l 32.00,0.00 L 128.00,160.00 z M 96.00,64.00L 64.00,64.00 l0.00,32.00 l 32.00,0.00 L 96.00,64.00 z M 160.00,96.00l0.00-32.00 L 128.00,64.00 l0.00,32.00 L 160.00,96.00 z M 192.00,128.00l0.00-32.00 L 160.00,96.00 l0.00,32.00 L 192.00,128.00 z
	 M 128.00,32.00L 96.00,32.00 l0.00,32.00 l 32.00,0.00 L 128.00,32.00 z M 448.00,320.00L 224.00,320.00 L 224.00,352.00 l 224.00,0.00 L 448.00,320.00 z M 448.00,192.00L 224.00,192.00 L 224.00,224.00 l 224.00,0.00 L 448.00,192.00 z M 448.00,64.00L 224.00,64.00 l0.00,32.00 l 224.00,0.00 L 448.00,64.00 z M 480.00-32.00L 32.00-32.00 l0.00,32.00 l 448.00,0.00 L 480.00-32.00 z" />
<glyph unicode="&#xe00d;" d="M 64.00-32.00L 64.00,480.00 l 384.00,0.00 l0.00-512.00 L 64.00-32.00 z M 416.00,416.00l-32.00,0.00 l0.00-32.00 l-32.00,0.00 L 352.00,416.00 l-32.00,0.00 l0.00-32.00 L 288.00,384.00 L 288.00,416.00 L 224.00,416.00 l0.00-32.00 L 192.00,384.00 L 192.00,416.00 L 160.00,416.00 l0.00-32.00 L 128.00,384.00 L 128.00,416.00 L 96.00,416.00 l0.00-416.00 l 320.00,0.00 L 416.00,416.00 z M 384.00,288.00
	L 128.00,288.00 L 128.00,320.00 l 256.00,0.00 L 384.00,288.00 z M 352.00,224.00L 128.00,224.00 L 128.00,256.00 l 224.00,0.00 L 352.00,224.00 z M 384.00,160.00L 128.00,160.00 L 128.00,192.00 l 256.00,0.00 L 384.00,160.00 z M 352.00,96.00L 128.00,96.00 l0.00,32.00 l 224.00,0.00 L 352.00,96.00 z M 384.00,32.00L 128.00,32.00 l0.00,32.00 l 256.00,0.00 L 384.00,32.00 z" />
<glyph unicode="&#xe00e;" d="M 320.00,480.00L 128.00,256.00l 96.00-64.00l-96.00-224.00l 256.00,256.00L 256.00,320.00L 320.00,480.00z" />
<glyph unicode="&#xe00f;" d="M 64.00,352.00l 32.00,0.00 L 96.00,416.00 l 96.00,0.00 l0.00-32.00 l 224.00,0.00 l0.00-32.00 l 32.00,0.00 l0.00-32.00 L 64.00,320.00 L 64.00,352.00 z M 448.00,32.00L 64.00,32.00 L0.00,288.00l 512.00,0.00 L 448.00,32.00z" />
<glyph unicode="&#xe010;" d="M 480.00,269.60C 422.688,330.368, 343.488,368.00, 256.00,368.00c-87.488,0.00-166.688-37.632-224.032-98.40
	l-32.00,33.952C 65.472,373.024, 156.00,416.00, 256.00,416.00c 100.00,0.00, 190.528-42.976, 256.064-112.48L 480.00,269.60z M 448.00,235.648l-32.00-33.952C 375.072,245.12, 318.496,272.00, 256.00,272.00
	c-62.496,0.00-119.072-26.88-160.00-70.272l-32.00,33.952C 113.12,287.744, 180.992,320.00, 256.00,320.00C 331.008,320.00, 398.88,287.744, 448.00,235.648z M 384.00,167.744l-32.00-33.952
	C 327.424,159.872, 293.504,176.00, 256.00,176.00c-37.472,0.00-71.424-16.128-96.00-42.176l-32.00,33.952C 160.736,202.496, 206.016,224.00, 256.00,224.00C 305.984,224.00, 351.264,202.496, 384.00,167.744z
	 M 320.00,99.872L 256.00,32.00l-64.00,67.872C 208.352,117.248, 231.008,128.00, 256.00,128.00C 280.992,128.00, 303.616,117.248, 320.00,99.872z" />
<glyph unicode="&#xe011;" d="M 416.00,288.00L 416.00,320.00 l-64.00,0.00 L 352.00,384.00 c0.00,53.024-43.008,96.00-96.00,96.00C 202.976,480.00, 160.00,437.024, 160.00,384.00l0.00-64.00 L 96.00,320.00 l0.00-32.00 L 64.00,288.00 l0.00-288.00 l 32.00,0.00 l0.00-32.00 l 320.00,0.00 l0.00,32.00 l 32.00,0.00 
	L 448.00,288.00 L 416.00,288.00 z M 224.00,384.00c0.00,17.664, 14.336,32.00, 32.00,32.00c 17.696,0.00, 32.00-14.336, 32.00-32.00l0.00-64.00 L 224.00,320.00 L 224.00,384.00 z M 288.00,136.864L 288.00,32.00 L 224.00,32.00 l0.00,104.864 C 204.96,147.968, 192.00,168.384, 192.00,192.00c0.00,35.328, 28.672,64.00, 64.00,64.00
	s 64.00-28.672, 64.00-64.00C 320.00,168.384, 307.072,147.968, 288.00,136.864z" />
<glyph unicode="&#xe012;" d="M 416.00,288.00L 416.00,320.00 l-64.00,0.00 L 352.00,384.00 c0.00,53.024-42.976,96.00-96.00,96.00S 160.00,437.024, 160.00,384.00l 64.00,0.00 c0.00,17.664, 14.304,32.00, 32.00,32.00
	s 32.00-14.336, 32.00-32.00l0.00-64.00 L 96.00,320.00 l0.00-32.00 L 64.00,288.00 l0.00-288.00 l 32.00,0.00 l0.00-32.00 l 320.00,0.00 l0.00,32.00 l 32.00,0.00 L 448.00,288.00 L 416.00,288.00 z M 288.00,136.864L 288.00,32.00 L 224.00,32.00 l0.00,104.864 C 204.96,147.968, 192.00,168.384, 192.00,192.00c0.00,35.328, 28.672,64.00, 64.00,64.00s 64.00-28.672, 64.00-64.00
	C 320.00,168.384, 307.072,147.968, 288.00,136.864z" />
<glyph unicode="&#xe013;" d="M 416.00,96.00l0.00-32.00 l 32.00,0.00 l0.00-32.00 L 256.00,32.00 l0.00,32.00 l 32.00,0.00 l0.00,32.00 L 192.00,96.00 L 192.00,384.00 l 320.00,0.00 l0.00-288.00 L 416.00,96.00 z M 480.00,352.00L 224.00,352.00 l0.00-224.00 l 256.00,0.00 L 480.00,352.00 z M 256.00,192.00L 256.00,320.00 l 128.00,0.00 L 256.00,192.00z M0.00,416.00l 160.00,0.00 l0.00-384.00 
	L0.00,32.00 L0.00,416.00 z M 32.00,128.00l 32.00,0.00 l0.00,32.00 L 32.00,160.00 L 32.00,128.00 z M 32.00,192.00l 32.00,0.00 L 64.00,224.00 L 32.00,224.00 L 32.00,192.00 z M 32.00,288.00l 96.00,0.00 L 128.00,320.00 L 32.00,320.00 L 32.00,288.00 z M 32.00,352.00l 96.00,0.00 L 128.00,384.00 L 32.00,384.00 L 32.00,352.00 z" />
<glyph unicode="&#xe014;" d="M 0.064,0.032L 256.00,447.968l 255.936-447.936L 0.064,0.032 z M 256.00,64.00c 17.696,0.00, 32.00,14.304, 32.00,32.00
	s-14.304,32.00-32.00,32.00s-32.00-14.304-32.00-32.00S 238.304,64.00, 256.00,64.00z M 288.00,320.00L 224.00,320.00 l0.00-160.00 l 64.00,0.00 L 288.00,320.00 z" />
<glyph unicode="&#xe015;" d="M0.00,0.00l 128.00,224.00l 7.84,0.00 C 153.472,186.784, 200.352,160.00, 256.00,160.00s 102.528,26.784, 120.16,64.00L 384.00,224.00 l 128.00-224.00L0.00,0.00 z
	 M 368.00,320.00c0.00-70.688-50.144-128.00-112.00-128.00S 144.00,249.312, 144.00,320.00c0.00,1.60, 0.352,3.072, 0.416,4.64C 134.784,330.144, 128.00,340.096, 128.00,352.00
	c0.00,17.504, 14.048,31.584, 31.488,31.904C 178.88,422.048, 214.624,448.00, 256.00,448.00c 41.632,0.00, 77.504-26.24, 96.80-64.736C 353.92,383.392, 354.88,384.00, 356.00,384.00
	C 371.456,384.00, 384.00,369.664, 384.00,352.00c0.00-12.832-6.72-23.744-16.288-28.832C 367.744,322.048, 368.00,321.088, 368.00,320.00z M 224.00,384.00L 192.00,384.00 l0.00-32.00 l 32.00,0.00 L 224.00,384.00 z M 320.00,384.00L 288.00,384.00 l0.00-32.00 l 32.00,0.00 L 320.00,384.00 z M 192.00,320.00
	c0.00-35.328, 28.672-64.00, 64.00-64.00s 64.00,28.672, 64.00,64.00L 192.00,320.00 z" />
<glyph unicode="&#xe016;" d="M 416.00-32.00l0.00,32.00 l-32.00,0.00 l0.00-32.00 l-32.00,0.00 l0.00,32.00 l-32.00,0.00 l0.00-32.00 L 288.00-32.00 l0.00,32.00 L 224.00,0.00 l0.00-32.00 L 192.00-32.00 l0.00,32.00 L 160.00,0.00 l0.00-32.00 L 128.00-32.00 l0.00,32.00 L 96.00,0.00 l0.00-32.00 L0.00-32.00 L0.00,448.00 l 32.00,0.00 L 32.00,480.00 l 32.00,0.00 l0.00-32.00 l 32.00,0.00 l0.00-96.00 l 32.00,0.00 L 128.00,416.00 l 32.00,0.00 
	l0.00-64.00 l 32.00,0.00 L 192.00,416.00 l 32.00,0.00 l0.00-64.00 l 64.00,0.00 L 288.00,416.00 l 32.00,0.00 l0.00-64.00 l 32.00,0.00 L 352.00,416.00 l 32.00,0.00 l0.00-64.00 l 32.00,0.00 L 416.00,448.00 l 32.00,0.00 L 448.00,480.00 l 32.00,0.00 l0.00-32.00 l 32.00,0.00 l0.00-480.00 L 416.00-32.00 z M 128.00,320.00L 96.00,320.00 l0.00-32.00 l 32.00,0.00 L 128.00,320.00 z M 128.00,256.00L 96.00,256.00 l0.00-32.00 l 32.00,0.00 L 128.00,256.00 z M 128.00,192.00L 96.00,192.00 l0.00-32.00 l 32.00,0.00 L 128.00,192.00 z M 128.00,128.00L 96.00,128.00 l0.00-32.00 l 32.00,0.00 L 128.00,128.00 z M 96.00,64.00l0.00-32.00 l 32.00,0.00 l0.00,32.00 L 96.00,64.00 z M 192.00,320.00
	L 160.00,320.00 l0.00-32.00 l 32.00,0.00 L 192.00,320.00 z M 192.00,256.00L 160.00,256.00 l0.00-32.00 l 32.00,0.00 L 192.00,256.00 z M 192.00,192.00L 160.00,192.00 l0.00-32.00 l 32.00,0.00 L 192.00,192.00 z M 192.00,128.00L 160.00,128.00 l0.00-32.00 l 32.00,0.00 L 192.00,128.00 z M 160.00,64.00l0.00-32.00 l 32.00,0.00 l0.00,32.00 L 160.00,64.00 z M 288.00,320.00L 224.00,320.00 l0.00-32.00 l 64.00,0.00 L 288.00,320.00 z M 288.00,256.00L 224.00,256.00 l0.00-32.00 l 64.00,0.00 L 288.00,256.00 z M 288.00,192.00L 224.00,192.00 l0.00-32.00 l 64.00,0.00 L 288.00,192.00 z M 288.00,128.00L 224.00,128.00 l0.00-32.00 l 64.00,0.00 L 288.00,128.00 z
	 M 224.00,64.00l0.00-32.00 l 64.00,0.00 l0.00,32.00 L 224.00,64.00 z M 352.00,320.00l-32.00,0.00 l0.00-32.00 l 32.00,0.00 L 352.00,320.00 z M 352.00,256.00l-32.00,0.00 l0.00-32.00 l 32.00,0.00 L 352.00,256.00 z M 352.00,192.00l-32.00,0.00 l0.00-32.00 l 32.00,0.00 L 352.00,192.00 z M 352.00,128.00l-32.00,0.00 l0.00-32.00 l 32.00,0.00 L 352.00,128.00 z M 320.00,64.00l0.00-32.00 l 32.00,0.00 l0.00,32.00 L 320.00,64.00 z M 416.00,320.00l-32.00,0.00 l0.00-32.00 l 32.00,0.00 L 416.00,320.00 z M 416.00,256.00l-32.00,0.00 l0.00-32.00 
	l 32.00,0.00 L 416.00,256.00 z M 416.00,192.00l-32.00,0.00 l0.00-32.00 l 32.00,0.00 L 416.00,192.00 z M 416.00,128.00l-32.00,0.00 l0.00-32.00 l 32.00,0.00 L 416.00,128.00 z M 416.00,64.00l-32.00,0.00 l0.00-32.00 l 32.00,0.00 L 416.00,64.00 z" />
</font>
</defs>
</svg>
